tja
This commit is contained in:
277
tja/897.tja
Normal file
277
tja/897.tja
Normal file
@@ -0,0 +1,277 @@
|
||||
//TJADB Project
|
||||
TITLE:Himitsuki-tuber
|
||||
TITLEJA:ヒミツキチューバー
|
||||
SUBTITLE:--Hidekazu Tanaka/Ninja Box
|
||||
SUBTITLEJA:「ニンジャボックス」より
|
||||
BPM:140
|
||||
WAVE:Himitsuki-tuber.ogg
|
||||
OFFSET:-3.664
|
||||
DEMOSTART:54.383
|
||||
|
||||
COURSE:Oni
|
||||
LEVEL:8
|
||||
BALLOON:9,5,5,5,12
|
||||
SCOREINIT:750
|
||||
SCOREDIFF:180
|
||||
|
||||
|
||||
#START
|
||||
|
||||
|
||||
2000200010120010,
|
||||
0010102010221210,
|
||||
1000200010212010,
|
||||
0010102010020122,
|
||||
1000200010212010,
|
||||
0010102020020122,
|
||||
1000200010212010,
|
||||
0010102010020122,
|
||||
1000200010212010,
|
||||
0010102020211120,
|
||||
1022102210120210,
|
||||
0012121010210122,
|
||||
1022102210120210,
|
||||
0012101210211120,
|
||||
1000200210212010,
|
||||
0010102010020122,
|
||||
1000200210212010,
|
||||
0010102010020122,
|
||||
1000200210212010,
|
||||
0010102010020122,
|
||||
1000200210212010,
|
||||
0010102010221210,
|
||||
11201120,
|
||||
11201120,
|
||||
1001002010010020,
|
||||
1010202010221210,
|
||||
11201120,
|
||||
11201120,
|
||||
3003004030030040,
|
||||
70008114,
|
||||
|
||||
#GOGOSTART
|
||||
0011201110112010,
|
||||
0011201110202010,
|
||||
0011202010112050,
|
||||
000000000000000000000008000000100000100000200000,
|
||||
0011201110112010,
|
||||
0011201110202010,
|
||||
0011202010112050,
|
||||
000000000000000008000000000000100000100000200000,
|
||||
0011201110112010,
|
||||
0011201110202010,
|
||||
0011202010112010,
|
||||
0010112000101020,
|
||||
0011201110112010,
|
||||
0011202211107000,
|
||||
8787,
|
||||
80000044,
|
||||
00340070,
|
||||
00084440,
|
||||
|
||||
#GOGOEND
|
||||
1022102210120210,
|
||||
2012121010212210,
|
||||
2022202210120010,
|
||||
0010102010220000,
|
||||
|
||||
|
||||
#END
|
||||
|
||||
|
||||
COURSE:Hard
|
||||
LEVEL:6
|
||||
BALLOON:7,4,4,4,9
|
||||
SCOREINIT:930
|
||||
SCOREDIFF:220
|
||||
|
||||
|
||||
#START
|
||||
|
||||
|
||||
2000200010110010,
|
||||
0010101010220000,
|
||||
10101121,
|
||||
01101000,
|
||||
10101121,
|
||||
01122020,
|
||||
10101121,
|
||||
01101000,
|
||||
10101121,
|
||||
0010102020111000,
|
||||
1000100010110010,
|
||||
0010101010110000,
|
||||
1000100010110010,
|
||||
0010101010110000,
|
||||
10201121,
|
||||
01101000,
|
||||
10201121,
|
||||
01122020,
|
||||
10201121,
|
||||
01101000,
|
||||
10201121,
|
||||
01122030,
|
||||
10201120,
|
||||
10201120,
|
||||
1001000020020000,
|
||||
11221120,
|
||||
10201120,
|
||||
10201120,
|
||||
1001000020020000,
|
||||
70008111,//30
|
||||
|
||||
#GOGOSTART
|
||||
01210121,
|
||||
01210221,
|
||||
01201125,
|
||||
000000000000000000000008000000100000100000100000,
|
||||
01210121,
|
||||
01210221,
|
||||
01201125,
|
||||
000000000000000008000000000000100000200000100000,
|
||||
01210121,
|
||||
01210221,
|
||||
01201121,
|
||||
01120121,
|
||||
01210121,
|
||||
01210070,
|
||||
8787,
|
||||
80000044,
|
||||
00340070,
|
||||
00082220,//48
|
||||
|
||||
#GOGOEND
|
||||
1000100010110010,
|
||||
0010101010110000,
|
||||
2000200010110010,
|
||||
0010101010220000,
|
||||
,
|
||||
#END
|
||||
|
||||
COURSE:Normal
|
||||
LEVEL:4
|
||||
BALLOON:5,3,3,3,10
|
||||
|
||||
#START
|
||||
10103001,
|
||||
01103000,
|
||||
10001001,
|
||||
01101000,
|
||||
10001001,
|
||||
01111000,
|
||||
10001001,
|
||||
01101000,
|
||||
10001001,
|
||||
01111000,
|
||||
10103001,
|
||||
01103000,
|
||||
10103001,
|
||||
01103000,
|
||||
10002001,
|
||||
01101000,
|
||||
10002001,
|
||||
01111000,
|
||||
10002001,
|
||||
01101000,
|
||||
10002001,
|
||||
01111030,
|
||||
00102001,
|
||||
1120,
|
||||
34,
|
||||
3344,
|
||||
00102001,
|
||||
1120,
|
||||
33,
|
||||
70000801,//30
|
||||
|
||||
#GOGOSTART
|
||||
0212,
|
||||
1210,
|
||||
10201025,
|
||||
000000000000000000000008000000000000000000100000,
|
||||
0212,
|
||||
10201001,
|
||||
01101015,
|
||||
000000000000000008000000000000000000000000100000,
|
||||
0212,
|
||||
1210,
|
||||
10201025,
|
||||
000000000000000008000000000000000000000000100000,
|
||||
0212,
|
||||
1217,
|
||||
8787,
|
||||
80000044,
|
||||
00330070,
|
||||
00000800,//48
|
||||
|
||||
#GOGOEND
|
||||
10103001,
|
||||
01103000,
|
||||
20203001,
|
||||
01111000,
|
||||
,
|
||||
#END
|
||||
|
||||
COURSE:Easy
|
||||
LEVEL:3
|
||||
BALLOON:4,2,2,2,7
|
||||
|
||||
#START
|
||||
10101005,
|
||||
000000000008000000000000300000000000000000000000,
|
||||
11,
|
||||
1110,
|
||||
11,
|
||||
2220,
|
||||
11,
|
||||
1110,
|
||||
11,
|
||||
2220,
|
||||
10101005,
|
||||
000000000008000000000000300000000000000000000000,
|
||||
10101005,
|
||||
000000000008000000000000300000000000000000000000,
|
||||
11,
|
||||
1110,
|
||||
11,
|
||||
2220,
|
||||
11,
|
||||
1110,
|
||||
11,
|
||||
2220,
|
||||
12,
|
||||
12,
|
||||
34,
|
||||
3330,
|
||||
12,
|
||||
12,
|
||||
33,
|
||||
70000800,//30
|
||||
|
||||
#GOGOSTART
|
||||
0101,
|
||||
0111,
|
||||
00100015,
|
||||
000000000000000008000000000000000000000000000000,
|
||||
0101,
|
||||
0111,
|
||||
0105,
|
||||
000000000000000008000000000000000000000000000000,
|
||||
0101,
|
||||
0111,
|
||||
00100015,
|
||||
000000000000000008000000000000000000000000000000,
|
||||
0202,
|
||||
0227,
|
||||
8787,
|
||||
800000000000000000000000000000000000500000000008,
|
||||
000000000000500000000008000000000000700000000000,
|
||||
00000800,//48
|
||||
|
||||
#GOGOEND
|
||||
10101005,
|
||||
000000000008000000000000300000000000000000000000,
|
||||
20201005,
|
||||
000000000008000000000000300000000000000000000000,
|
||||
,
|
||||
#END
|
||||
Reference in New Issue
Block a user