This commit is contained in:
2026-03-04 23:59:27 +09:00
parent 6e0312f5b4
commit 4b4e2b8c98
1128 changed files with 668765 additions and 0 deletions

612
tja/9.tja Normal file
View File

@@ -0,0 +1,612 @@
//TJADB Project
TITLE:Kimi to Hibiku Harmony
TITLEJA:キミと響くハーモニー
SUBTITLE:--Takafumi Sato feat. Nao Toyama
SUBTITLEJA:「太鼓の達人 ちびドラゴンと不思議なオーブ」メインテーマ曲
BPM:163.9
WAVE:Kimi to Hibiku Harmony.ogg
OFFSET:-1.486
DEMOSTART:70.426
COURSE:Edit
LEVEL:8
BALLOON:12,13
SCOREINIT:430
SCOREDIFF:105
#START
10101105,
#BPMCHANGE 164.88
000000000000000000000008000000000000000000100000,
#BPMCHANGE 163.22
10101105,
#BPMCHANGE 161.3
000000008000000100100300,
#BPMCHANGE 163.44
33044403,
#BPMCHANGE 162.6
33044401,
#BPMCHANGE 165.21
12110107,
#BPMCHANGE 162.52
0000000000080022,
#BPMCHANGE 163
1020102102102020,
1020102102102220,
1020102102102020,
1020100010201120,
1020112010201120,
1020112011221120,
1020002210001020,
,
1022102210111020,
1022102010111020,
1022102010221020,
1022112030303022,
1022102210111020,
1022102010111020,
1022102010221020,
1022112030303000,
11221122,
11211020,
1020101122101020,
1012021022102210,
1020101122112010,
0020202011221212,
1020101122101020,
1012021022102210,
1020101122112010,
1010101012102000,
1020102211101020,
1020102212101020,
1020102211101020,
1020102212101020,
1022102211101020,
1022102212101020,
33330121,
44440121,
1202,
1000200011221111,
20003344,
1113,
4,
#GOGOSTART
1011201201112010,
1011201201112020,
1011201201112010,
1011201201112030,
33433343,
33433340,
1010202010111070,
0008,
1020102122102020,
1020102122102220,
1020102122102020,
1020100010201120,
1020112010221120,
1020112011221120,
34003034,
,
1011102010112020,
1011102011112022,
1011102010112020,
1111202210201000,
#GOGOEND
#BPMCHANGE 160.68
4,
#BPMCHANGE 162.61
10101105,
#BPMCHANGE 165.25
00000081,
#BPMCHANGE 162.33
10101105,
#BPMCHANGE 164.21
00008113,
#GOGOSTART
#BPMCHANGE 163
33433343,
33433300,
11210105,
000000000000000000000000000000000008000000000000,
1020102102102020,
1020102102102220,
1020102102102020,
1020100010201120,
1020112010201120,
1020112011221120,
1020002210001020,
,
1020101122101020,
1012021022102210,
1020101122112212,
#GOGOEND
#END
COURSE:Oni
LEVEL:6
BALLOON:13,13,8
SCOREINIT:560
SCOREDIFF:148
#START
,
#BPMCHANGE 164.88
,
#BPMCHANGE 163.22
,
#BPMCHANGE 161.3
,
#BPMCHANGE 163.44
33004400,
#BPMCHANGE 162.6
33004400,
#BPMCHANGE 165.21
10110107,
#BPMCHANGE 162.52
0008,
#BPMCHANGE 163
10211120,
10211120,
10211120,
10211212,
01210212,
01210212,
12001012,
,
1011101110101020,
0011102010100020,
0011102000111020,
0011102030303000,
1011101110101020,
0011102010100020,
0011102000111020,
0011102030303000,
,
,
1000200110102010,
01212121,
1000200110102010,
01121020,
1000200110102010,
01212121,
1000200110102010,
1010101011101000,
1010200011102020,
1010200011102000,
1010200011102020,
1010200011102000,
1010202011102020,
1010202011101110,
33330000,
44440000,
1202,
1000200011111010,
20003333,
0113,
4,
#GOGOSTART
12121212,
1020102010221000,
12121212,
1020102010221000,
33004400,
33004400,
1010202010111070,
0008,
10211120,
12221212,
10211120,
12221212,
01210212,
01210212,
12001012,
,
1011200010112000,
1011202010112000,
1011200010112000,
1011202030303000,
#GOGOEND
#BPMCHANGE 160.68
4,
#BPMCHANGE 162.61
10101105,
#BPMCHANGE 165.25
0008,
#BPMCHANGE 162.33
10101107,
#BPMCHANGE 164.21
000000000000000000000000080000000000000000000000,
#GOGOSTART
#BPMCHANGE 163
33004400,
33004400,
11220105,
000000000000000000000000000000000008000000000000,
10211120,
12221212,
10211120,
12221212,
01210212,
01210212,
12001012,
,
1000200110102010,
01212121,
1000200110111120,
#GOGOEND
#END
COURSE:Hard
LEVEL:5
BALLOON:10,10,6
SCOREINIT:540
SCOREDIFF:150
#START
,
#BPMCHANGE 164.88
,
#BPMCHANGE 163.22
,
#BPMCHANGE 161.3
,
#BPMCHANGE 163.44
33004400,
#BPMCHANGE 162.6
33004400,
#BPMCHANGE 165.21
10110107,
#BPMCHANGE 162.52
0008,
#BPMCHANGE 163
1112,
10101120,
1112,
10100222,
01110222,
01110222,
12001012,
0,
10101111,
01111105,
000000000000000008000000000000100000100000100000,
01013330,
10101111,
01111105,
000000000000000008000000000000100000100000100000,
01013330,
0,
0,
10201121,
01010101,
10201121,
0,
10201121,
01010101,
10201121,
0,
10201120,
10201120,
10201120,
10201120,
11201120,
11221120,
33330000,
44440000,
1202,
1000200010111010,
20003333,
0113,
4,
#GOGOSTART
1000100010111000,
2000200020222000,
1000100010111000,
2000200020222000,
33004400,
33004400,
11110107,
0008,
10101120,
12222222,
10101120,
12222222,
01110222,
01110222,
12001012,
0,
1000100010111000,
1000100010111000,
1000100010111000,
1011100030303000,
#BPMCHANGE 160.68
#GOGOEND
4,
#BPMCHANGE 162.61
10101105,
#BPMCHANGE 165.248
00000800,
#BPMCHANGE 162.331
10101107,
#BPMCHANGE 164.208
000000000000000000000000080000000000000000000000,
#BPMCHANGE 163
#GOGOSTART
33004400,
33004400,
11110105,
000000000000000000000000000000000008000000000000,
10101120,
12222222,
10101120,
12222222,
01110222,
01110222,
12001012,
0,
10201121,
01010101,
1000200010111020,
#GOGOEND
,
,
,
#END
COURSE:1
LEVEL:4
BALLOON:17,10,10,17,5,15
SCOREINIT:570
SCOREDIFF:148
#START
0,
#BPMCHANGE 164.88
0,
#BPMCHANGE 163.21734619140602
0,
#BPMCHANGE 161.297
0,
#BPMCHANGE 163.437
33004400,
#BPMCHANGE 162.595
33004400,
#BPMCHANGE 165.207
7,
#BPMCHANGE 162.516
000000000000000000000000000000000000080000000000,
#BPMCHANGE 163
1110,
1120,
1110,
1120,
1122,
1122,
33004033,
0,
1111,
1120,
1111,
10103330,
1111,
1120,
1111,
10103330,
0,
0,
1120,
1212,
9,
8,
1120,
1212,
9,
8,
10101110,
1110,
10101110,
1110,
10101110,
10101110,
33330000,
44440000,
0202,
0202,
35,
000000000000000000000000000000000008000000000000,
4,
#GOGOSTART
10101110,
20202220,
10101110,
20202220,
33004400,
33004400,
7,
0008,
1110,
1120,
1110,
1120,
1122,
1122,
33004033,
0,
1111,
1120,
1111,
10103330,
#BPMCHANGE 160.68
#GOGOEND
4,
#BPMCHANGE 162.61
10101005,
#BPMCHANGE 165.248
00000800,
#BPMCHANGE 162.331
10101007,
#BPMCHANGE 164.208
000000000000000000000000080000000000000000000000,
#BPMCHANGE 163
#GOGOSTART
33004400,
33004400,
7,
0008,
1110,
1222,
1110,
1222,
1122,
1122,
33004033,
0,
1120,
1212,
100000000000100000000000500000000000000000000008,
#GOGOEND
,
,
,
#END
COURSE:0
LEVEL:3
BALLOON:10,6,6,10,4,10
SCOREINIT:590
SCOREDIFF:173
#START
0,
#BPMCHANGE 164.88
0,
#BPMCHANGE 163.217
0,
#BPMCHANGE 161.297
0,
#BPMCHANGE 163.437
34,
#BPMCHANGE 162.595
34,
#BPMCHANGE 165.207
7,
#BPMCHANGE 162.516
000000000000000000000000000000000000080000000000,
#BPMCHANGE 163
1110,
11,
1110,
11,
12,
12,
100000000000000000000000500000000000000000000008,
0,
1111,
11,
1111,
13,
1111,
11,
1111,
13,
0,
0,
1110,
1210,
9,
8,
1110,
1210,
9,
8,
1110,
11,
1110,
11,
1110,
1110,
600000000000000000000000000000000008000000000000,
600000000000000000000000000000000008000000000000,
0202,
0202,
35,
000000000000000000000000000000000008000000000000,
4,
#GOGOSTART
1110,
2220,
1110,
2220,
34,
34,
7,
0008,
1110,
12,
1110,
12,
1120,
1120,
100000000000000000000000500000000000000000000008,
0,
1111,
11,
1111,
1033,
#BPMCHANGE 160.68
#GOGOEND
4,
#BPMCHANGE 162.61
10001005,
#BPMCHANGE 165.248
00000800,
#BPMCHANGE 162.331
10001007,
#BPMCHANGE 164.208
000000000000000000000000080000000000000000000000,
#BPMCHANGE 163
#GOGOSTART
34,
34,
7,
0008,
1110,
12,
1110,
12,
1120,
1120,
100000000000000000000000500000000000000000000008,
0,
11,
1111,
100000000000000000000000500000000000000000000008,
100000000000000000000000500000000000000000000008,
#GOGOEND
,
,
,
#END