tja
This commit is contained in:
517
tja/908.tja
Normal file
517
tja/908.tja
Normal file
@@ -0,0 +1,517 @@
|
||||
//TJADB Project
|
||||
TITLE:Retro Mania Rhapsody
|
||||
TITLEJA:レトロマニア狂想曲
|
||||
SUBTITLE:--PolyphonicBranch feat. Kagamine Rin & Kagamine Len/#C.O.M.P.A.S.S.
|
||||
SUBTITLEJA:PolyphonicBranch feat.鏡音リン・鏡音レン 「戦闘摂理解析システム#コンパス」より
|
||||
BPM:180
|
||||
WAVE:Retro Mania Rhapsody.ogg
|
||||
OFFSET:-1.525
|
||||
DEMOSTART:46.851
|
||||
|
||||
COURSE:Oni
|
||||
LEVEL:8
|
||||
BALLOON:8,8,3,3,3,4
|
||||
SCOREINIT:1380
|
||||
SCOREDIFF:0
|
||||
|
||||
|
||||
#START
|
||||
|
||||
|
||||
1011201020100010,
|
||||
0022201010002000,
|
||||
1011201020100010,
|
||||
0011201020002000,
|
||||
1011201020100010,
|
||||
0022201010002000,
|
||||
1011201020100030,
|
||||
01111000,
|
||||
1011201110102010,
|
||||
1011202210201020,
|
||||
1011201110102010,
|
||||
1000100010211010,
|
||||
1011201110102010,
|
||||
1011202210201020,
|
||||
1011201110102010,
|
||||
1212,
|
||||
30304403,
|
||||
0030300030221000,
|
||||
1012101020001020,
|
||||
1022101020001020,
|
||||
1012101020001010,
|
||||
11211040,
|
||||
1010202000221020,
|
||||
11221212,
|
||||
33003306,
|
||||
000000000000000000000008000000000000000000000000,
|
||||
|
||||
#GOGOSTART
|
||||
1110202011102020,
|
||||
1012101020102000,
|
||||
1011202010112020,
|
||||
12121022,
|
||||
1021102011221120,
|
||||
12121020,
|
||||
10212127,
|
||||
0000000080202222,
|
||||
1000202011102020,
|
||||
1012101020102000,
|
||||
1011202010112020,
|
||||
12121022,
|
||||
1022102210221022,
|
||||
11112022,
|
||||
10212127,
|
||||
08,
|
||||
30330303,
|
||||
#BPMCHANGE 179
|
||||
03304000,
|
||||
|
||||
#GOGOEND
|
||||
#MEASURE 6/4
|
||||
#BPMCHANGE 220
|
||||
101101020210,
|
||||
101101020221,
|
||||
101101021220,
|
||||
100010100010002000222020,
|
||||
101011101010,
|
||||
202022222020,
|
||||
101011011010,
|
||||
222220222022,
|
||||
101011101010,
|
||||
202022222022,
|
||||
101101202202,
|
||||
708708708000,
|
||||
#MEASURE 4/4
|
||||
#BPMCHANGE 182
|
||||
5,
|
||||
#BARLINEOFF
|
||||
#BPMCHANGE 180
|
||||
000000000008000000000000200000200200200000000000,
|
||||
#BARLINEON
|
||||
3011103011103011,
|
||||
1030111040001010,
|
||||
1000102010221020,
|
||||
1110102010002020,
|
||||
1000102010221020,
|
||||
1110222010221222,
|
||||
1000102010221020,
|
||||
1110102010001020,
|
||||
1000100010221020,
|
||||
4440,
|
||||
33004400,
|
||||
33004400,
|
||||
1011222211221122,
|
||||
1124,
|
||||
1022102010221020,
|
||||
1111201020102222,
|
||||
100000000000000000000000600000000000000008000000,
|
||||
1022122210000000,
|
||||
|
||||
#GOGOSTART
|
||||
1010201020111020,
|
||||
1022101012021000,
|
||||
1011102020111020,
|
||||
1022102012021022,
|
||||
1010201020111020,
|
||||
1022101012021000,
|
||||
1011102011111020,
|
||||
1022102012021120,
|
||||
1010201020111020,
|
||||
1022101012021000,
|
||||
1011102020111020,
|
||||
1022102012021022,
|
||||
1010201020111020,
|
||||
1022101012021000,
|
||||
1022122010221010,
|
||||
30303240,
|
||||
|
||||
#GOGOEND
|
||||
22220111,
|
||||
22112120,
|
||||
22220111,
|
||||
22207080,
|
||||
|
||||
|
||||
#END
|
||||
|
||||
|
||||
COURSE:Hard
|
||||
LEVEL:7
|
||||
BALLOON:7,7,5,9
|
||||
SCOREINIT:2260
|
||||
SCOREDIFF:0
|
||||
|
||||
|
||||
#START
|
||||
|
||||
|
||||
10112101,
|
||||
01101020,
|
||||
10112101,
|
||||
01212020,
|
||||
10112101,
|
||||
01101020,
|
||||
10112103,
|
||||
01111000,
|
||||
1110,
|
||||
10101212,
|
||||
1110,
|
||||
2220,
|
||||
1110,
|
||||
10101212,
|
||||
1110,
|
||||
1212,
|
||||
30304403,
|
||||
03303000,
|
||||
11012011,
|
||||
11012000,
|
||||
11012011,
|
||||
1214,
|
||||
10112010,
|
||||
10221020,
|
||||
33003306,
|
||||
000000000000000000000008000000000000000000000000,
|
||||
|
||||
#GOGOSTART
|
||||
11201110,
|
||||
11112020,
|
||||
11201110,
|
||||
11112000,
|
||||
1011100010111000,
|
||||
11212010,
|
||||
10212127,
|
||||
00000800,
|
||||
11201110,
|
||||
11112020,
|
||||
11201110,
|
||||
11112000,
|
||||
1011100010111000,
|
||||
12121020,
|
||||
10212127,
|
||||
00000800,
|
||||
30330303,
|
||||
#BPMCHANGE 179
|
||||
03304000,
|
||||
|
||||
#GOGOEND
|
||||
#BPMCHANGE 220
|
||||
#MEASURE 6/4
|
||||
101100020220,
|
||||
101100020220,
|
||||
101100020220,
|
||||
101100020220,
|
||||
101011101000,
|
||||
202022202000,
|
||||
101011101000,
|
||||
202022202000,
|
||||
101011101000,
|
||||
202022202000,
|
||||
1111,
|
||||
78,
|
||||
#MEASURE 4/4
|
||||
#BPMCHANGE 182
|
||||
5,
|
||||
#BARLINEOFF
|
||||
#BPMCHANGE 180
|
||||
000000000000000000000008000000000000000000000000,
|
||||
#BARLINEON
|
||||
30030030,
|
||||
03004000,
|
||||
10101110,
|
||||
11102000,
|
||||
10101110,
|
||||
12121010,
|
||||
10101110,
|
||||
11102000,
|
||||
10102220,
|
||||
500000000000000000000008000000000000000000000000,
|
||||
33004400,
|
||||
33004400,
|
||||
500000000000000000000000000000000008000000000000,
|
||||
1124,
|
||||
1122,
|
||||
11102000,
|
||||
300000000000000000000000600000000000000008000000,
|
||||
1110,
|
||||
|
||||
#GOGOSTART
|
||||
10101120,
|
||||
11102020,
|
||||
1011100010111000,
|
||||
22202000,
|
||||
10101120,
|
||||
11102020,
|
||||
1011100010111000,
|
||||
22202000,
|
||||
10101120,
|
||||
11102020,
|
||||
1011100020222000,
|
||||
11101000,
|
||||
10101120,
|
||||
11102020,
|
||||
1011100020222000,
|
||||
500000000000000000000000000000000008000000000000,//92
|
||||
|
||||
#GOGOEND
|
||||
22220111,
|
||||
20222220,
|
||||
22220111,
|
||||
7008,
|
||||
|
||||
|
||||
#END
|
||||
|
||||
|
||||
COURSE:Normal
|
||||
LEVEL:5
|
||||
BALLOON:5,5,5,6
|
||||
SCOREINIT:4190
|
||||
SCOREDIFF:0
|
||||
|
||||
|
||||
#START
|
||||
|
||||
|
||||
1110,
|
||||
11101000,
|
||||
10101005,
|
||||
000000000000000000000000000008000000000000000000,
|
||||
1110,
|
||||
11101000,
|
||||
10101005,
|
||||
000000000000000000000008000000000000000000000000,
|
||||
11,
|
||||
1120,
|
||||
11,
|
||||
2220,
|
||||
11,
|
||||
1120,
|
||||
11,
|
||||
2220,
|
||||
5,
|
||||
000000000000000000000008000000000000000000000000,
|
||||
11,
|
||||
2220,
|
||||
11,
|
||||
2220,
|
||||
1011,
|
||||
2022,
|
||||
33003306,
|
||||
000000000000000000000008000000000000000000000000,
|
||||
|
||||
#GOGOSTART
|
||||
1110,
|
||||
11101000,
|
||||
1120,
|
||||
11101000,
|
||||
22,
|
||||
2220,
|
||||
10001007,
|
||||
00000800,
|
||||
1110,
|
||||
11101000,
|
||||
1120,
|
||||
11101000,
|
||||
22,
|
||||
2220,
|
||||
10001007,
|
||||
00000800,
|
||||
6,
|
||||
#BPMCHANGE 179
|
||||
000000000000000000000008000000000000000000000000,
|
||||
|
||||
#GOGOEND
|
||||
#BPMCHANGE 220
|
||||
#MEASURE 6/4
|
||||
110000,
|
||||
110000,
|
||||
110000,
|
||||
110000,
|
||||
110000,
|
||||
220000,
|
||||
110000,
|
||||
220000,
|
||||
110000,
|
||||
220000,
|
||||
11,
|
||||
78,
|
||||
#MEASURE 4/4
|
||||
#BPMCHANGE 182
|
||||
,
|
||||
#BARLINEOFF
|
||||
#BPMCHANGE 180
|
||||
,
|
||||
#BARLINEON
|
||||
30030030,
|
||||
03004000,
|
||||
1110,
|
||||
11101000,
|
||||
1120,
|
||||
11101000,
|
||||
1110,
|
||||
11101000,
|
||||
1122,
|
||||
500000000000000000000008000000000000000000000000,
|
||||
33004400,
|
||||
33004400,
|
||||
500000000000000000000000000000000008000000000000,
|
||||
2220,
|
||||
1111,
|
||||
2220,
|
||||
33,
|
||||
500000000000000000000008000000000000000000000000,
|
||||
|
||||
#GOGOSTART
|
||||
1111,
|
||||
11102000,
|
||||
10101110,
|
||||
2220,
|
||||
1111,
|
||||
11102000,
|
||||
10101110,
|
||||
500000000000000000000000000008000000000000000000,
|
||||
1111,
|
||||
11102000,
|
||||
10101110,
|
||||
2220,
|
||||
1111,
|
||||
11102000,
|
||||
10101110,
|
||||
500000000000000000000000000000000008000000000000,
|
||||
|
||||
#GOGOEND
|
||||
1,
|
||||
22,
|
||||
1,
|
||||
7008,
|
||||
|
||||
|
||||
#END
|
||||
|
||||
|
||||
COURSE:Easy
|
||||
LEVEL:3
|
||||
BALLOON:4,4,4,4
|
||||
SCOREINIT:7130
|
||||
SCOREDIFF:0
|
||||
|
||||
|
||||
#START
|
||||
|
||||
|
||||
11,
|
||||
1,
|
||||
10001005,
|
||||
000000000000000000000000000008000000000000000000,
|
||||
11,
|
||||
1,
|
||||
10001005,
|
||||
000000000000000000000008000000000000000000000000,
|
||||
11,
|
||||
1,
|
||||
11,
|
||||
1,
|
||||
11,
|
||||
1,
|
||||
11,
|
||||
1,
|
||||
5,
|
||||
000000000000000000000008000000000000000000000000,
|
||||
11,
|
||||
2,
|
||||
11,
|
||||
2,
|
||||
1,
|
||||
1,
|
||||
30003006,
|
||||
000000000000000000000008000000000000000000000000,
|
||||
|
||||
#GOGOSTART
|
||||
11,
|
||||
1110,
|
||||
11,
|
||||
1110,
|
||||
2,
|
||||
2,
|
||||
10001007,
|
||||
00000800,
|
||||
11,
|
||||
1110,
|
||||
11,
|
||||
1110,
|
||||
2,
|
||||
2,
|
||||
10001007,
|
||||
00000800,
|
||||
6,
|
||||
#BPMCHANGE 179
|
||||
000000000000000000000008000000000000000000000000,
|
||||
|
||||
#GOGOEND
|
||||
#BPMCHANGE 220
|
||||
#MEASURE 6/4
|
||||
1,
|
||||
1,
|
||||
1,
|
||||
1,
|
||||
1,
|
||||
2,
|
||||
1,
|
||||
2,
|
||||
1,
|
||||
2,
|
||||
1,
|
||||
78,
|
||||
#MEASURE 4/4
|
||||
#BPMCHANGE 182
|
||||
,
|
||||
#BARLINEOFF
|
||||
#BPMCHANGE 180
|
||||
,
|
||||
#BARLINEON
|
||||
6,
|
||||
000000000000000000000008000000000000000000000000,
|
||||
11,
|
||||
1110,
|
||||
11,
|
||||
1110,
|
||||
11,
|
||||
1110,
|
||||
11,
|
||||
500000000000000000000008000000000000000000000000,
|
||||
33,
|
||||
33,
|
||||
500000000000000000000008000000000000000000000000,
|
||||
2220,
|
||||
11,
|
||||
1110,
|
||||
33,
|
||||
500000000000000000000008000000000000000000000000,
|
||||
|
||||
#GOGOSTART
|
||||
11,
|
||||
1110,
|
||||
11,
|
||||
2220,
|
||||
11,
|
||||
1110,
|
||||
11,
|
||||
500000000000000000000000000008000000000000000000,
|
||||
11,
|
||||
1110,
|
||||
11,
|
||||
2220,
|
||||
11,
|
||||
1110,
|
||||
11,
|
||||
500000000000000000000000000008000000000000000000,
|
||||
|
||||
#GOGOEND
|
||||
1,
|
||||
2,
|
||||
1,
|
||||
7008,
|
||||
|
||||
|
||||
#END
|
||||
|
||||
Reference in New Issue
Block a user