This commit is contained in:
2026-03-04 23:59:27 +09:00
parent 6e0312f5b4
commit 4b4e2b8c98
1128 changed files with 668765 additions and 0 deletions

520
tja/91.tja Normal file
View File

@@ -0,0 +1,520 @@
//TJADB Project
TITLE:Mars
TITLEJA:火星
SUBTITLE:--Gustav Holst
SUBTITLEJA:ホルスト
BPM:160
WAVE:Mars.ogg
OFFSET:-1.813
DEMOSTART:1.813
COURSE:Oni
LEVEL:7
BALLOON:3,3,3,3,3,3,3,3,100
SCOREINIT:660
SCOREDIFF:130
#START
#MEASURE 5/4
,
,
,
#GOGOSTART
101010100000100000100100100000,
100010001000100000000000100000000000100100100000100000000000,
101010100000100000100100100000,
100010001000100000000000100000000000100100100000100000000000,
,
101010100000100000100100100000,
100010001000100000000000100000000000100100100000100000000000,
101010100000100000100200100000,
100010001000100000000000100000000000100100100000100000000000,
101010100000100000100200100000,
100010001000100000000000100000000000100100100000100000000000,
5,
,
000000000000000008000000000000000000100000100000100000000000,
101020100000100000100100200000,
100010002000100000000000100000000000100100100000200000000000,
102010100000100000100100200000,
100020001000100000000000100000000000100100100000200000000000,
102020100000100000100100200000,
100020002000100000000000100000000000100100100000200000000000,
200010001000200000000000200000000000500000000008000000000000,
100010001000100000000000100000000000100010002000100010002000,
100000000000100000000000100000000000500000000000000008000000,
100010001000100000000000100000000000100000200000100000000000,
111100100112112,
100100101200100,
500000000000000008000000100000001000200000000000100000000000,
500000000000000008000000100000001000200000000000100000000000,
500000000000000008000000100000001000200000000000100000000000,
500000000000000008000000100000001000200000000000100000000000,
300201100201100,
201100201100201,
500000000000000008000000100000001000200000000000100000000000,
300201100201100,
201100201100201,
200201200201200,
222201200202100,
202100202100200,
500000000000000008000000100000000000100000200000100000000000,
100020002000100000000000100000000000100100100000100000000000,
500000000000000008000000100000000000100000200000100000000000,
100020002000100000000000100000000000100100100000100000000000,
700801700801100,
700801700801100,
700801700801700,
800000001000700000000000800000000000600000000000
#GOGOEND
#BPMCHANGE 156.19
000008000000,
#BPMCHANGE 160
3,
,
3,
,
30040,
30040,
30304,
04040,
#MEASURE 4/4
#BPMCHANGE 150
7,
0,
0,
0,
#MEASURE 5/4
0,
#MEASURE 4/4
8,//63
#GOGOSTART
#MEASURE 3/4
011101110111,
011201120112,
012201220122,
011121112111,
211121122112,
#BPMCHANGE 151.23
200100100200200500000000000008000000,
#BPMCHANGE 150
000010001000100000000000000000000000,
001110,
#MEASURE 7/8
0011100,
#MEASURE 3/4
111100000,
#MEASURE 5/4
#SCROLL 0.6
000000000000300000000000000000000000
#SCROLL 0.77
#BPMCHANGE 114.29
300000000000000000000000,
#BPMCHANGE 80
#SCROLL 1.09
000000000000
#BPMCHANGE 75
#SCROLL 1.18
300000000000
#BPMCHANGE 60
#SCROLL 1.44
300000000000300000000000000000000000,
#MEASURE 4/4
6,
000000000000000008000000000000000000000000000000,
#GOGOEND
#END
COURSE:Hard
LEVEL:6
BALLOON:2,2,2,2,2,2,2,2,80
SCOREINIT:630
SCOREDIFF:110
#START
#MEASURE 5/4
,
,
,//3
#GOGOSTART
101010100000100000100100100000,
101010100000100000100100100000,
101010100000100000100100100000,
101010100000100000100100100000,
,
101010100000100000100100100000,
101010100000100000100100100000,
101010100000100000100200100000,
111100100200200,
101010100000100000100200100000,
111100100200200,
5,
,
000000000000000008000000000000000000100000100000100000000000,
101010200000100000100100200000,
111200100200200,
101010200000100000100100200000,
111200100200200,
101020200000100000100100200000,
112200100200200,
100010002000200000000000100000000000500000000000000008000000,
111100100111111,
100000000000100000000000100000000000500000000000000008000000,
101010100000100000100100100000,
111100100111111,
100100101100100,
500000000000000008000000100000001000100000000000100000000000,
500000000000000008000000100000001000100000000000100000000000,
500000000000000008000000100000001000100000000000100000000000,
500000000000000008000000100000001000100000000000100000000000,
300001100001100,
001100001100001,
500000000000000008000000100000001000100000000000100000000000,
300001100001100,
001100001100001,
200001200001200,
200001200002100,
002100002100000,
500000000000000008000000100000000000100000200000100000000000,
101010100000100000100200100000,
500000000000000008000000100000000000100000200000100000000000,
101010100000100000100200100000,
700801700801100,
700801700801100,
700801700801700,
800000001000700000000000800000000000600000000000
#GOGOEND
#BPMCHANGE 156.19
000008000000,//49
#BPMCHANGE 160
3,
,
3,
,
30040,
30040,
30304,
04040,
#BPMCHANGE 150
#MEASURE 4/4
9,
,
,
,
#MEASURE 5/4
9,
#MEASURE 4/4
8,//63
#GOGOSTART
#MEASURE 3/4
011101110100,
011101110100,
011101110111,
011101110111,
011101110111,
#BPMCHANGE 151.23
000100100100000500000000000008000000,
#BPMCHANGE 150
111100000,
001110,
#MEASURE 7/8
0011100,
#MEASURE 3/4
111100000,
#SCROLL 0.6
#MEASURE 5/4
000000000000300000000000000000000000
#SCROLL 0.77
#BPMCHANGE 114.29
300000000000000000000000,
#BPMCHANGE 80
#SCROLL 1.09
000000000000
#SCROLL 1.18
#BPMCHANGE 75
300000000000
#SCROLL 1.44
#BPMCHANGE 60
300000000000300000000000000000000000,
#MEASURE 4/4
6,
000000000000000008000000000000000000000000000000,//77
#GOGOEND
#END
COURSE:Normal
LEVEL:5
SCOREINIT:610
SCOREDIFF:100
#START
#MEASURE 5/4
,
,
,//3
#GOGOSTART
111100100100000,
111100100100000,
111100100100000,
111100100100000,
,
111100100100000,
111100100100000,
111100100200000,
111100100200000,
111100100200000,
111100100200000,
5,
,
000000000000000008000000000000000000000000000000000000000000,
111100100100100,
222200200200200,
111100100100100,
222200200200200,
111100100100100,
222200200200200,
100010001000100000000000100000000000500000000000000008000000,
10070,
000000800000000000000000000000000000500000000000000008000000,
1000001110,
11070,
008000101100100,
100000101100100,
100000101100100,
100000101100100,
100000101100100,
300001100001100,
001100001100001,
100000101100100,
300001100001100,
001100001100002,
200002200002200,
200002200001100,
001100001100000,
500000000000000000000000000000000000000000000000000000000008,
0010101110,
500000000000000000000000000000000000000000000000000000000008,
0010101110,
78783,
78783,
78787,
800000000000700000000000800000000000600000000000
#GOGOEND
#BPMCHANGE 156.19
000008000000,//49
#BPMCHANGE 160
3,
,
3,
,
30040,
30040,
30304,
04040,
#BPMCHANGE 150
#MEASURE 4/4
9,
,
,
,
#MEASURE 5/4
9,
#MEASURE 4/4
8,//63
#GOGOSTART
#MEASURE 3/4
010101010100,
010101010100,
010101010100,
050000000000,
,
#BPMCHANGE 151.23
000000000000000000000008000000000000,
#BPMCHANGE 150
111100000,
001110,
#MEASURE 7/8
0011100,
#MEASURE 3/4
111100000,
#SCROLL 0.6
#MEASURE 5/4
000000000000300000000000000000000000
#SCROLL 0.77
#BPMCHANGE 114.29
300000000000000000000000,
#BPMCHANGE 80
#SCROLL 1.09
000000000000
#SCROLL 1.18
#BPMCHANGE 75
300000000000
#SCROLL 1.44
#BPMCHANGE 60
300000000000300000000000000000000000,
#MEASURE 4/4
6,
000000000000000008000000000000000000000000000000,//77
#GOGOEND
#END
COURSE:Easy
LEVEL:4
BALLOON:4,4,2,2,2,2,2,2,2,2,35
SCOREINIT:430
SCOREDIFF:30
#START
#MEASURE 5/4
,
,
,//3
#GOGOSTART
33011,
33011,
33011,
33011,
,
33011,
33011,
33022,
33022,
33022,
33022,
5,
,
000000000000000008000000000000000000000000000000000000000000,
3030001110,
3030002220,
3030001110,
3030002220,
3030001110,
3030002220,
33050,
000008000000000000000000000000000000700000000000000000000000,
0800005000,
000008000000000000000000000000000000000000000000000000000000,
0000007000,
0800101010,
10222,
20111,
10222,
20111,
30403,
04030,
40111,
30403,
04030,
40404,
40403,
03030,
500000000000000000000000000000000000000000000000000000000008,
0010101110,
500000000000000000000000000000000000000000000000000000000008,
0010101110,
78783,
78783,
78787,
800000000000700000000000800000000000600000000000
#GOGOEND
#BPMCHANGE 156.19
000008000000,//49
#BPMCHANGE 160
3,
,
3,
,
30040,
30040,
30304,
04040,
#BPMCHANGE 150
#MEASURE 4/4
9,
,
,
,
#MEASURE 5/4
9,
#MEASURE 4/4
8,//63
#GOGOSTART
#MEASURE 3/4
010001000100,
020002000200,
010001000100,
050000000000,
,
#BPMCHANGE 151.23
000000000000000000000008000000000000,
#BPMCHANGE 150
330,
001110,
#MEASURE 7/8
0011100,
#MEASURE 3/4
303,
#SCROLL 0.6
#MEASURE 5/4
000000000000300000000000000000000000
#SCROLL 0.77
#BPMCHANGE 114.29
300000000000000000000000,
#BPMCHANGE 80
#SCROLL 1.09
000000000000
#SCROLL 1.18
#BPMCHANGE 75
300000000000
#SCROLL 1.44
#BPMCHANGE 60
300000000000300000000000000000000000,
#MEASURE 4/4
6,
000000000000000008000000000000000000000000000000,
#GOGOEND
#END