This commit is contained in:
2026-03-04 23:59:27 +09:00
parent 6e0312f5b4
commit 4b4e2b8c98
1128 changed files with 668765 additions and 0 deletions

519
tja/910.tja Normal file
View File

@@ -0,0 +1,519 @@
//TJADB Project
TITLE:Neko Thank You
TITLEJA:猫サンキュー
SUBTITLE:--Yuuyami ni Izanaishi Shikkoku no Angel
SUBTITLEJA:夕闇に誘いし漆黒の天使達
BPM:195
WAVE:Neko Thank You.ogg
OFFSET:-1.361
DEMOSTART:53.014
COURSE:Oni
LEVEL:9
BALLOON:16,7,9,7,9,2
SCOREINIT:1550
SCOREDIFF:0
#START
,
,
,
0202,
0202,
11111111,
1111111030000000,
11212112,
21211211,
11212112,
2010201010222222,
11212112,
21211211,
21121121,
1022202020101010,
70000008,
1020112010201120,
1020112011202210,
0020112010201120,
1020112011202000,
2020221022102210,
4010222022102210,
2020221022102210,
3000111111111111,
1020112010201120,
1020112011202210,
0020112010201120,
1020112011202000,
2020221022102210,
4010222022102210,
2020221022102210,
3000111110101010,
1000200011100020,
0011200011102010,
2011200011102010,
2222100022221000,
1000200011100020,
0011200011102010,
2011200011102010,
2222111122112000,
#SCROLL 1.5
500000000008000000000000
#SCROLL 2
300000300000000000000000,
#SCROLL 4
700000000000000000800000
#SCROLL 8
600000000008000000000000,
#GOGOSTART
#SCROLL 1
1020111020102210,
200000100000100100200000500000000000000008000000,
1010112010202210,
200000100000100100200000500000000000000000000008,
0000221022102210,
2210222070000000,
8000221122112211,
2211222270000080,
1020111020102210,
200000100000100100200000500000000000000008000000,
1010112010202210,
200000100000100100200000500000000000000000000008,
0000221022102210,
2210222070000000,
8000222211112222,
1122112211112222,
#GOGOEND
11212112,
21211211,
11212112,
2010201010222222,
11212112,
21211211,
41141141,
2211112211117080,
#SCROLL 0.5
3000111020001010,
#BARLINEOFF
11112111,
#BARLINEON
1000001120100010,
#BARLINEOFF
#SCROLL 2
4444,
#GOGOSTART
#BARLINEON
3000
#SCROLL 0.5
#GOGOEND
111020001010,
#BARLINEOFF
11112111,
#BARLINEON
1000001120100010,
#BARLINEOFF
#SCROLL 2
4444,//74
#BARLINEON
#GOGOSTART
3000//75
#SCROLL 0.5
#GOGOEND
111020001010,
#BARLINEOFF
21112111,
#BARLINEON
2000001120100010,
#BARLINEOFF
#SCROLL 2
4444,//78
#BARLINEON
#GOGOSTART
3000//79
#SCROLL 0.5
#GOGOEND
111020001010,
#BARLINEOFF
21112111,
#BARLINEON
2000001120100010,
#BARLINEOFF
2000222010202020,
#SCROLL 2
3,
#END
COURSE:Hard
LEVEL:7
BALLOON:36,23,7,7,24
SCOREINIT:2520
SCOREDIFF:0
#START
,
,
,
9,
,
0900,
8,
11201120,
11221120,
11201120,
11221110,
11201120,
11221120,
7,
0008,
3,
12121212,
12101000,
12121212,
12101000,
22102210,
40221000,
22102210,
40221000,
12121212,
12101000,
12121212,
12101000,
22102210,
40221000,
22102210,
40221000,
10201102,
01101122,
11101110,
4141,
10201102,
01101122,
11101122,
0111,
#SCROLL 1.5
500000000008000000000000
#SCROLL 2
600008000000000000000000,
#SCROLL 4
500008000000500008000000600000000008000000000000,//42
#SCROLL 1
#GOGOSTART
11211201,
100000200000100000000000500000000000000008000000,
11221122,
100000100000200000200000500000000000000000000008,
00222222,
22207000,
80222222,
22203000,
11211201,
100000200000100000000000500000000000000008000000,
11221122,
100000100000200000200000500000000000000000000008,
00222222,
22207000,
80222222,
22203000,//58
#GOGOEND
11201120,
11221120,
11201120,
11221110,
11201120,
11221120,
12212212,
21221020,
3000111010002020,
11112222,
1000001110100000,
3333,//70
#GOGOSTART
3000//71
#GOGOEND
111010002020,
11112222,
1000001110100000,
3333,//74
#GOGOSTART
3000//75
#GOGOEND
222020002020,
11112222,
1000002220200000,
3333,//78
#GOGOSTART
3000//79
#GOGOEND
222020002020,
11112222,
9,
09,
8,
#END
COURSE:Normal
LEVEL:5
BALLOON:22,15,4,4,14
SCOREINIT:4160
SCOREDIFF:0
#START
,
,
,
9,
,
0900,
8,
1110,
1120,
1110,
1120,
1110,
1120,
7,
,
8,
1110,
11101000,
1110,
11101000,
2222,
42,
2222,
42,
1110,
11101000,
1110,
11101000,
2222,
42,
2222,
42,
10101101,
01100010,
11101000,
44,
10101101,
01100010,
11101010,
0222,
#SCROLL 1.5
500000000008000000000000
#SCROLL 2
600008000000000000000000,
#SCROLL 4
500008000000500008000000600000000008000000000000,//42
#SCROLL 1
#GOGOSTART
10110101,
01101000,
11101110,
11101000,
0222,
22207000,
8222,
22203000,
10110101,
01101000,
11101110,
11101000,
0222,
22207000,
8222,
22203000,//58
#GOGOEND
1111,
1120,
1111,
1120,
1122,
1120,
30030030,
03004000,
30011000,
11102000,
10011000,
3333,//70
#GOGOSTART
30//71
#GOGOEND
011000,
11102000,
10011000,
3333,//74
#GOGOSTART
30//75
#GOGOEND
111000,
11102000,
10011000,
3333,//78
#GOGOSTART
30//79
#GOGOEND
111000,
11102000,
9,
09,
8,
#END
COURSE:Easy
LEVEL:4
BALLOON:18,12,5,5,5,5,12
SCOREINIT:7140
SCOREDIFF:0
#START
,
,
,
9,
,
0900,
8,
11,
1,
11,
1,
11,
11,
7,
,
8,
1110,
1,
1110,
1,
22,
4,
22,
4,
1110,
1,
1110,
1,
22,
4,
22,
4,
1110,
1,
1110,
33,
1110,
1,
1111,
,
#SCROLL 1.5
500000000008000000000000
#SCROLL 2
600008000000000000000000,
#SCROLL 4
500008000000500008000000600000000008000000000000,//42
#SCROLL 1
#GOGOSTART
11,
1110,
1110,
1110,
0111,
7008,
0111,
7008,
11,
1110,
1110,
1110,
0111,
7008,
0111,
7008,//58
#GOGOEND
11,
1110,
11,
1110,
11,
1111,
5,
000000000000000000000000000008000000000000000000,
32,
12,
12,
3333,//70
#GOGOSTART
3//71
#GOGOEND
020,
12,
12,
3333,//74
#GOGOSTART
3//75
#GOGOEND
020,
12,
12,
3333,//78
#GOGOSTART
3//79
#GOGOEND
020,
12,
9,
09,
8,
#END