tja
This commit is contained in:
469
tja/917.tja
Normal file
469
tja/917.tja
Normal file
@@ -0,0 +1,469 @@
|
||||
//TJADB Project
|
||||
TITLE:Freeway3234
|
||||
TITLEJA:Freeway3234
|
||||
SUBTITLE:--mao & K Masera
|
||||
SUBTITLEJA:
|
||||
BPM:145
|
||||
WAVE:Freeway3234.ogg
|
||||
OFFSET:-1.789
|
||||
DEMOSTART:23.306
|
||||
|
||||
//shinuchi: 7950/5930/3330/2080
|
||||
|
||||
COURSE:Oni
|
||||
LEVEL:8
|
||||
BALLOON:12,8
|
||||
SCOREINIT:690,2150
|
||||
SCOREDIFF:185
|
||||
|
||||
#START
|
||||
#BARLINEOFF
|
||||
00000003,
|
||||
#BARLINEON
|
||||
0,
|
||||
20000200,
|
||||
00200004,
|
||||
0,
|
||||
|
||||
1100200010020000,
|
||||
1100200010020000,
|
||||
1100200010020000,
|
||||
#BPMCHANGE 150.35
|
||||
#SCROLL 0.96
|
||||
01000100
|
||||
#BPMCHANGE 140.02
|
||||
#SCROLL 1.04
|
||||
20020000, //9
|
||||
|
||||
#BPMCHANGE 145
|
||||
#SCROLL 1
|
||||
1122100010020000,
|
||||
1122100010020000,
|
||||
1122100010020002,
|
||||
2201102101101120,
|
||||
|
||||
1100200011020000,
|
||||
1100200011020000,
|
||||
1100200011020000,
|
||||
#BPMCHANGE 148.68
|
||||
#SCROLL 0.98
|
||||
01000100
|
||||
#BPMCHANGE 141.49
|
||||
#SCROLL 1.02
|
||||
20010000, //17
|
||||
|
||||
#BPMCHANGE 145
|
||||
#SCROLL 1
|
||||
1122100011020010,
|
||||
1122100011020010,
|
||||
100000000500000000000000000000000008000000000000,
|
||||
3004003000000000,
|
||||
|
||||
1001211202011010,
|
||||
1001211202011010,
|
||||
1001003000101001,
|
||||
0030220110012011, //25
|
||||
|
||||
1001211202011020,
|
||||
1001211202011222,
|
||||
#BPMCHANGE 146.18
|
||||
#SCROLL 0.99
|
||||
1021003000101021,
|
||||
#BPMCHANGE 143.84
|
||||
#SCROLL 1.01
|
||||
07000080,
|
||||
#BPMCHANGE 145
|
||||
#SCROLL 1
|
||||
0122221122020200, //30
|
||||
|
||||
#GOGOSTART
|
||||
1001201101002010,
|
||||
1001201202011010,
|
||||
1001201101002010,
|
||||
1021003021021222,
|
||||
|
||||
1001200101102010,
|
||||
1001222101102020,
|
||||
1001201022101001,
|
||||
2010221202102222, //38
|
||||
|
||||
1001211202011020,
|
||||
1001211202011010,
|
||||
1001211202011020,
|
||||
1021001022111122,
|
||||
|
||||
1001221202011020,
|
||||
1001221202011022,
|
||||
1101017000000800,
|
||||
0111111111020200, //46
|
||||
#GOGOEND
|
||||
|
||||
1001200110100120,
|
||||
0110100120011010,
|
||||
0220100220111100,
|
||||
|
||||
1001200111100120,
|
||||
0111100120011110,
|
||||
0002110002110011, //52
|
||||
|
||||
#MEASURE 5/8
|
||||
2112020200,
|
||||
2112020200,
|
||||
2112020200,
|
||||
#MEASURE 9/8
|
||||
112111122211211100,
|
||||
|
||||
#MEASURE 5/8
|
||||
2112020200,
|
||||
2112020200,
|
||||
2112020200,
|
||||
#MEASURE 31/16
|
||||
1111222011112222212212212211122,
|
||||
|
||||
#MEASURE 8/4
|
||||
0400000000000000, //61
|
||||
#END
|
||||
|
||||
|
||||
COURSE:Hard
|
||||
LEVEL:7
|
||||
BALLOON:10,12,12
|
||||
SCOREINIT:920,3710
|
||||
SCOREDIFF:275
|
||||
|
||||
#START
|
||||
#BARLINEOFF
|
||||
00000003,
|
||||
#BARLINEON
|
||||
0,
|
||||
20000200,
|
||||
00200004,
|
||||
0,
|
||||
|
||||
1000100020020000,
|
||||
1000100020020000,
|
||||
1000100020020000,
|
||||
#BPMCHANGE 150.35
|
||||
#SCROLL 0.96
|
||||
01000100
|
||||
#BPMCHANGE 140.02
|
||||
#SCROLL 1.04
|
||||
20020000, //9
|
||||
|
||||
#BPMCHANGE 145
|
||||
#SCROLL 1
|
||||
1100100020020000,
|
||||
1100100020020000,
|
||||
1100100020020000,
|
||||
0,
|
||||
|
||||
1100100010000000,
|
||||
1100100010000000,
|
||||
1100100010000000,
|
||||
#BPMCHANGE 148.68
|
||||
#SCROLL 0.98
|
||||
01000100
|
||||
#BPMCHANGE 141.49
|
||||
#SCROLL 1.02
|
||||
20020000, //17
|
||||
|
||||
#BPMCHANGE 145
|
||||
#SCROLL 1
|
||||
1110100010000000,
|
||||
1110100010000000,
|
||||
100000000500000000000000000000000008000000000000,
|
||||
3003003000000000,
|
||||
|
||||
1001100101001000,
|
||||
1001100101001000,
|
||||
3003003000003003,
|
||||
03000000, //25
|
||||
|
||||
2002200202002000,
|
||||
2002200202002000,
|
||||
#BPMCHANGE 146.18
|
||||
#SCROLL 0.99
|
||||
3003003000003003,
|
||||
#BPMCHANGE 143.84
|
||||
#SCROLL 1.01
|
||||
07000080,
|
||||
#BPMCHANGE 145
|
||||
#SCROLL 1
|
||||
0110100022020200, //30
|
||||
|
||||
#GOGOSTART
|
||||
1001100101001000,
|
||||
1001100101001000,
|
||||
1001100101001000,
|
||||
3003003000000000,
|
||||
|
||||
1001100101001000,
|
||||
1001100101001000,
|
||||
2002202002202002,
|
||||
2020222200000000, //38
|
||||
|
||||
1001100101002000,
|
||||
1001100101002000,
|
||||
1001100101002000,
|
||||
3003003000000000,
|
||||
|
||||
1001100101002000,
|
||||
1001100101002000,
|
||||
500000000000000000000000000000000008000000000000,
|
||||
3, //46
|
||||
#GOGOEND
|
||||
|
||||
1111000000222200,
|
||||
0000111100000070,
|
||||
00000800,
|
||||
|
||||
2222000000111100,
|
||||
0000222200000070,
|
||||
00000800, //52
|
||||
|
||||
#MEASURE 5/8
|
||||
2222020200,
|
||||
2222020200,
|
||||
2222020200,
|
||||
#MEASURE 9/8
|
||||
500000000000000000000000000000000008000000000000000000,
|
||||
|
||||
#MEASURE 5/8
|
||||
2222020200,
|
||||
2222020200,
|
||||
2222020200,
|
||||
#MEASURE 31/16
|
||||
1010111020202222002002002001111,
|
||||
|
||||
#MEASURE 8/4
|
||||
0400000000000000, //61
|
||||
#END
|
||||
|
||||
|
||||
COURSE:Normal
|
||||
LEVEL:6
|
||||
BALLOON:6,6,8,8
|
||||
SCOREINIT:1270,6990
|
||||
SCOREDIFF:518
|
||||
|
||||
#START
|
||||
#BARLINEOFF
|
||||
00000003,
|
||||
#BARLINEON
|
||||
0,
|
||||
20000200,
|
||||
00200004,
|
||||
0,
|
||||
|
||||
1120,
|
||||
1120,
|
||||
1120,
|
||||
#BPMCHANGE 150.35
|
||||
#SCROLL 0.96
|
||||
07000000
|
||||
#BPMCHANGE 140.02
|
||||
#SCROLL 1.04
|
||||
00800000, //9
|
||||
|
||||
#BPMCHANGE 145
|
||||
#SCROLL 1
|
||||
1120,
|
||||
1120,
|
||||
1120,
|
||||
0,
|
||||
|
||||
1110,
|
||||
1110,
|
||||
1110,
|
||||
#BPMCHANGE 148.68
|
||||
#SCROLL 0.98
|
||||
07000000
|
||||
#BPMCHANGE 141.49
|
||||
#SCROLL 1.02
|
||||
00800000, //17
|
||||
|
||||
#BPMCHANGE 145
|
||||
#SCROLL 1
|
||||
1100100010000000,
|
||||
1100100010000000,
|
||||
500000000000000000000000000008000000000000000000,
|
||||
3003003000000000,
|
||||
|
||||
1001100000001000,
|
||||
1001100000001000,
|
||||
30030030,
|
||||
03000000, //25
|
||||
|
||||
2002200000002000,
|
||||
2002200000002000,
|
||||
#BPMCHANGE 146.18
|
||||
#SCROLL 0.99
|
||||
30030030,
|
||||
#BPMCHANGE 143.84
|
||||
#SCROLL 1
|
||||
000000600000000000000000000000000000000000000008,
|
||||
#BPMCHANGE 145
|
||||
0, //30
|
||||
|
||||
#GOGOSTART
|
||||
1000100100000000,
|
||||
2000200200000000,
|
||||
1000100100000000,
|
||||
30030000,
|
||||
|
||||
1000100100000000,
|
||||
2000200200000000,
|
||||
10010010,
|
||||
000000500000000000000000000008000000000000000000, //38
|
||||
|
||||
1000100100002000,
|
||||
2000200200001000,
|
||||
1000100100002000,
|
||||
30030000,
|
||||
|
||||
1000100100002000,
|
||||
2000200200001000,
|
||||
500000000000000000000000000008000000000000000000,
|
||||
3, //46
|
||||
#GOGOEND
|
||||
|
||||
10200102,
|
||||
00102007,
|
||||
00000800,
|
||||
|
||||
10200102,
|
||||
00102007,
|
||||
00000800, //52
|
||||
|
||||
#MEASURE 5/8
|
||||
2022000000,
|
||||
2022000000,
|
||||
2022000000,
|
||||
#MEASURE 9/8
|
||||
500000000000000000000000000000000008000000000000000000,
|
||||
|
||||
#MEASURE 5/8
|
||||
2022000000,
|
||||
2022000000,
|
||||
2022000000,
|
||||
#MEASURE 31/16
|
||||
300000000000000000000000300000000000000000000600000000000000000000000000000000008000000000000,
|
||||
|
||||
#MEASURE 8/4
|
||||
0400000000000000, //61
|
||||
#END
|
||||
|
||||
|
||||
COURSE:Easy
|
||||
LEVEL:4
|
||||
BALLOON:5,5,6,6
|
||||
SCOREINIT:930,9550
|
||||
SCOREDIFF:485
|
||||
|
||||
#START
|
||||
#BARLINEOFF
|
||||
00000003,
|
||||
#BARLINEON
|
||||
0,
|
||||
20000200,
|
||||
00200001,
|
||||
0,
|
||||
|
||||
1110,
|
||||
1110,
|
||||
1110,
|
||||
#BPMCHANGE 150.35
|
||||
#SCROLL 0.96
|
||||
07000000
|
||||
#BPMCHANGE 140.02
|
||||
#SCROLL 1.04
|
||||
00800000, //9
|
||||
|
||||
#BPMCHANGE 145
|
||||
#SCROLL 1
|
||||
2220,
|
||||
2220,
|
||||
2220,
|
||||
0,
|
||||
|
||||
11,
|
||||
11,
|
||||
11,
|
||||
#BPMCHANGE 148.68
|
||||
#SCROLL 0.98
|
||||
07000000
|
||||
#BPMCHANGE 141.49
|
||||
#SCROLL 1.02
|
||||
00800000, //17
|
||||
|
||||
#BPMCHANGE 145
|
||||
#SCROLL 1
|
||||
22,
|
||||
22,
|
||||
500000000000000000000000000008000000000000000000,
|
||||
3003003000000000,
|
||||
|
||||
1101,
|
||||
1100,
|
||||
30030030,
|
||||
03000000, //25
|
||||
|
||||
2202,
|
||||
2200,
|
||||
#BPMCHANGE 146.18
|
||||
#SCROLL 0.99
|
||||
30030030,
|
||||
#BPMCHANGE 143.84
|
||||
#SCROLL 1.01
|
||||
000000600000000000000000000000000000000000000008,
|
||||
#BPMCHANGE 145
|
||||
#SCROLL 1
|
||||
0, //30
|
||||
|
||||
#GOGOSTART
|
||||
1000100100000000,
|
||||
1000100100000000,
|
||||
1000100100000000,
|
||||
3,
|
||||
|
||||
1000100100000000,
|
||||
1000100100000000,
|
||||
20020020,
|
||||
000000500000000000000000000008000000000000000000, //38
|
||||
|
||||
1000100100000000,
|
||||
2000200200000000,
|
||||
1000100100000000,
|
||||
3,
|
||||
|
||||
1000100100000000,
|
||||
2000200200000000,
|
||||
500000000000000000000000000008000000000000000000,
|
||||
3, //46
|
||||
#GOGOEND
|
||||
|
||||
10000100,
|
||||
00100007,
|
||||
00000800,
|
||||
|
||||
20000200,
|
||||
00200007,
|
||||
00000800, //52
|
||||
|
||||
#MEASURE 5/8
|
||||
2,
|
||||
2,
|
||||
2,
|
||||
#MEASURE 9/8
|
||||
500000000000000000000000000000000008000000000000000000,
|
||||
|
||||
#MEASURE 5/8
|
||||
2,
|
||||
2,
|
||||
2,
|
||||
#MEASURE 31/16
|
||||
300000000000000000000000300000000000000000000600000000000000000000000000000000008000000000000,
|
||||
|
||||
#MEASURE 8/4
|
||||
0400000000000000, //61
|
||||
#END
|
||||
Reference in New Issue
Block a user