tja
This commit is contained in:
592
tja/919.tja
Normal file
592
tja/919.tja
Normal file
@@ -0,0 +1,592 @@
|
||||
//TJADB Project
|
||||
TITLE:Ai Nandaze
|
||||
TITLEJA:愛なんだぜ
|
||||
SUBTITLE:--Taku Inoue
|
||||
BPM:200
|
||||
WAVE:Ai Nandaze.ogg
|
||||
OFFSET:-1.326
|
||||
DEMOSTART:40.869
|
||||
|
||||
COURSE:Oni
|
||||
LEVEL:9
|
||||
BALLOON:10
|
||||
SCOREINIT:1590
|
||||
SCOREDIFF:0
|
||||
|
||||
|
||||
#START
|
||||
|
||||
|
||||
000000000000000000000000000000000000000000000000,
|
||||
300000000000100000000000100000000000100000100100,
|
||||
100000100100100000100100100000100100100100100000,
|
||||
300000000000100000000000100000000000100000100100,
|
||||
100000200200200000100100100000200200100100100000,
|
||||
300000100100100000100100100000100100100000100100,
|
||||
100000200200100000200200100000200200100200200200,
|
||||
100000000000100100100100200000000000100100100100,
|
||||
200000100100200000100100200000100000400000000000,
|
||||
|
||||
#GOGOSTART
|
||||
100000100200200000100000000000100100200000100000,
|
||||
000000100100200000100100100000200000200000000000,
|
||||
100000100200200000100000000000100100200000100000,
|
||||
100100100000200200200000000000100000100000000000,
|
||||
100000100200200000100000000000100100200000100000,
|
||||
000000100100200000100100100000200000200000000000,
|
||||
100000100200200000100000000000100100200000100000,
|
||||
100100100000200200200000000000100000100000000000,
|
||||
|
||||
#GOGOEND
|
||||
100000000000200000100100100000100000200000100000,
|
||||
100000000000200000100100100000100000200000000000,
|
||||
100100100000200000100100100000200000200000100000,
|
||||
100100100000200000100100100000200000200000000000,
|
||||
100000000000200000100100100000100000200000100000,
|
||||
100000000000200000100100100000100000200000000000,
|
||||
100100100000200000100100100000200000200000300000,
|
||||
000000200000200000300000000000200000200200200200,
|
||||
100000000000200000100100100000100000200000100000,
|
||||
100000000000200000100100100000100000200000000000,
|
||||
100100100000200000100100100000200000200000100000,
|
||||
100100100000200000100100100000200000200000000000,
|
||||
100000000000200000100100100000100000200000100000,
|
||||
100000000000200000100100100000100000200000000000,
|
||||
100100100000100000200200200000200000100100100000,
|
||||
100100200000100100200000100100200200200000000000,
|
||||
|
||||
#GOGOSTART
|
||||
100000100100100000100000000000200200200000100000,
|
||||
000000100100200000100000000000200200100000100000,
|
||||
000000100200200000100000000000200100100000100000,
|
||||
000000100100100000200200200000100000200000000000,
|
||||
100000200200200000100000000000100100100000100000,
|
||||
000000200200100000100000000000100100200000100000,
|
||||
000000200100100000100000000000100200200000000000,
|
||||
100000100100200000200200100000100000100000000000,
|
||||
100000100200200100100000000000200100100200200000,
|
||||
000000100100200200100000000000200200100100200000,
|
||||
000000100100100200200000000000200200200100100000,
|
||||
000000100100100000200200200000100000200000000000,
|
||||
100000100200200200100000000000200100100100200000,
|
||||
000000100100200100100000000000200200100200200000,
|
||||
100000100100200000100000100000100000200200100000,
|
||||
300000000000300000000000300000000000600000000000,
|
||||
000000000000000000000000000000000000000000000000,
|
||||
000000000000000000000080000000000000200000000000,
|
||||
100000100100200000100000100100100000200200100000,
|
||||
300000000000300000000000300000000000600000000000,
|
||||
000000000000000000000000000000000000000000000000,
|
||||
000000000000000000000080000000000000400000000000,
|
||||
100000100200200000100000000000100100200000100000,
|
||||
000000100100200000100100100000200000200000000000,
|
||||
100000100200200000100000000000100100200000100000,
|
||||
100100100000200200100000100100100200200000000000,
|
||||
100000100200200000100000000000100100200000100000,
|
||||
000000100100200000100100100000200000200000000000,
|
||||
100000100200200000100000000000100100200000100000,
|
||||
100100100000200200100000100100100100100100200000,
|
||||
|
||||
#GOGOEND
|
||||
100000100100200000100000100000100000200200100000,
|
||||
100000200000100000100000200000100000200000000000,
|
||||
100000100100200000100000100000100000200200100000,
|
||||
100000200000100000100000200000100000200200200000,
|
||||
100000100100200000100000100000100000200200100000,
|
||||
300000000000300000000000300000000000600000000000,
|
||||
000000000000000000000000000000000000000000000000,
|
||||
000000000000000000000080000000000000400000000000,
|
||||
|
||||
#GOGOSTART
|
||||
300000200200100200200200100200200200100200200200,
|
||||
100200200200100200200200100200200200100100100100,
|
||||
#BPMCHANGE 171.89
|
||||
#SCROLL 1.16
|
||||
500000000000000000000000000000000000000080000000,
|
||||
#BPMCHANGE 196.41
|
||||
#SCROLL 1.01
|
||||
200020002000200020002000
|
||||
#BPMCHANGE 154.88
|
||||
#SCROLL 1.29
|
||||
100010001000
|
||||
#BPMCHANGE 136
|
||||
#SCROLL 1.47
|
||||
100010001000,
|
||||
#MEASURE 1/16
|
||||
#BPMCHANGE 95.7
|
||||
#SCROLL 2.08
|
||||
1,
|
||||
#BARLINEOFF
|
||||
#BPMCHANGE 69.72
|
||||
#SCROLL 2.86
|
||||
1,
|
||||
#BPMCHANGE 59.15
|
||||
#SCROLL 3.38
|
||||
1,
|
||||
#BPMCHANGE 59.75
|
||||
#SCROLL 3.34
|
||||
1,
|
||||
#BPMCHANGE 39.91
|
||||
#SCROLL 5.01
|
||||
1,
|
||||
#BPMCHANGE 45.94
|
||||
#SCROLL 4.35
|
||||
1,
|
||||
#MEASURE 1/32
|
||||
#BPMCHANGE 63.41
|
||||
#SCROLL 3.15
|
||||
11,
|
||||
#BARLINEON
|
||||
#MEASURE 3/8
|
||||
#BPMCHANGE 84.03
|
||||
#SCROLL 2.38
|
||||
2100
|
||||
#BPMCHANGE 68.56
|
||||
#SCROLL 2.91
|
||||
00,
|
||||
#MEASURE 2/4
|
||||
#BPMCHANGE 79.21
|
||||
#SCROLL 2.52
|
||||
7008,
|
||||
|
||||
#GOGOEND
|
||||
#MEASURE 4/4
|
||||
#BPMCHANGE 84.29
|
||||
#SCROLL 2.37
|
||||
122100000000000000000000,
|
||||
|
||||
|
||||
#END
|
||||
|
||||
|
||||
COURSE:Hard
|
||||
LEVEL:7
|
||||
BALLOON:12,40
|
||||
SCOREINIT:3270
|
||||
SCOREDIFF:0
|
||||
|
||||
|
||||
#START
|
||||
|
||||
|
||||
000000000000000000000000000000000000000000000000,
|
||||
500000000000000000000000000000000000000000000000,
|
||||
000000000000000000000000000000000000000000000000,
|
||||
000000000000000000000000000000000000000000000000,
|
||||
000000000000000000000000000000000000000000000080,
|
||||
000000000000000000000000000000000000000000000000,
|
||||
000000000000000000000000000000000000000000000000,
|
||||
200000000000000000000000200000000000000000000000,
|
||||
200000000000200000000000200000000000200000000000,
|
||||
|
||||
#GOGOSTART
|
||||
100000100000200000100000000000100000200000100000,
|
||||
000000100000100000100000000000200000200000000000,
|
||||
100000100000200000100000000000100000200000100000,
|
||||
000000200000200000200000000000100000100000000000,
|
||||
100000100000200000100000000000100000200000100000,
|
||||
000000100000100000100000000000200000200000000000,
|
||||
100000100000200000100000000000100000200000100000,
|
||||
000000200000200000200000000000100000100000000000,
|
||||
|
||||
#GOGOEND
|
||||
100000000000100000000000100000100000100000000000,
|
||||
100000000000100000000000100000100000200000000000,
|
||||
100000100000100000000000100000100000200000000000,
|
||||
100000000000200000100000100000100000200000000000,
|
||||
100000000000100000000000100000100000100000000000,
|
||||
100000000000100000000000100000100000200000000000,
|
||||
100000100000100000000000100000100000200000300000,
|
||||
000000200000200000300000000000200000200000000000,
|
||||
100000000000100000000000100000100000100000000000,
|
||||
100000000000100000000000100000100000200000000000,
|
||||
100000100000100000000000100000100000200000000000,
|
||||
100000100000100000000000100000100000200000000000,
|
||||
100000000000200000000000100000100000200000000000,
|
||||
100000000000200000000000100000100000200000000000,
|
||||
300000000000300000000000700000000000000000000000,
|
||||
000000000000000000000000000000800000000000000000,
|
||||
|
||||
#GOGOSTART
|
||||
100000100000200000100000000000100000200000100000,
|
||||
000000100000200000100000000000100000200000100000,
|
||||
000000100000200000100000000000100100100000500000,
|
||||
000000000000000000000000000080000000000000000000,
|
||||
100000100000200000100000000000100000200000100000,
|
||||
000000100000200000100000000000100000200000100000,
|
||||
000000100000200000100000000000200200200000000000,
|
||||
500000000000000000000000000080000000000000000000,
|
||||
100000100000200000100000000000100100100000100000,
|
||||
000000100000200000100000000000100100100000100000,
|
||||
000000100000200000100000000000100100100000500000,
|
||||
000000000000000000000000000080000000000000000000,
|
||||
100000100000200000100000000000100100100000100000,
|
||||
000000100000200000100000000000000000200000000000,
|
||||
100000000000200000100000100000000000200000000000,
|
||||
300000000000300000000000300000000000600000000000,
|
||||
000000000000000000000000000000000000000000000000,
|
||||
000000000000000000000080000000000000200000000000,
|
||||
100000000000200000100000100000000000200000000000,
|
||||
300000000000300000000000300000000000600000000000,
|
||||
000000000000000000000000000000000000000000000000,
|
||||
000000000000000000000080000000000000400000000000,
|
||||
100000100000200000100000000000100000200000100000,
|
||||
000000100000100000100000000000200000200000000000,
|
||||
100000100000200000100000000000100000200000100000,
|
||||
000000200000200000200000000000100000100000000000,
|
||||
100000100000200000100000000000100000200000100000,
|
||||
000000100000100000100000000000200000200000000000,
|
||||
100000100000200000100000000000100000200000100000,
|
||||
000000200000200000200000000000100000100000000000,
|
||||
|
||||
#GOGOEND
|
||||
100000000000100000000000100000100000100000000000,
|
||||
200000000000200000000000200000100000200000000000,
|
||||
100000100000100000000000100000100000100000000000,
|
||||
200000000000200000000000200000100000200000000000,
|
||||
100000000000200000100000100000000000200000000000,
|
||||
300000000000300000000000300000000000600000000000,
|
||||
000000000000000000000000000000000000000000000000,
|
||||
000000000000000000000080000000000000400000000000,
|
||||
|
||||
#GOGOSTART
|
||||
300000000000000000000000000000000000000000000000,
|
||||
000000000000000000000000000000000000000000000000,
|
||||
#BPMCHANGE 171.89
|
||||
#SCROLL 1.16
|
||||
900000000000000000000000000000000000000000000000,
|
||||
#BPMCHANGE 196.41
|
||||
#SCROLL 1.01
|
||||
000000000000000000000000
|
||||
#BPMCHANGE 154.88
|
||||
#SCROLL 1.29
|
||||
000000000000
|
||||
#BPMCHANGE 136
|
||||
#SCROLL 1.47
|
||||
000000000000,
|
||||
#MEASURE 1/16
|
||||
#BPMCHANGE 95.7
|
||||
#SCROLL 2.08
|
||||
,
|
||||
#BARLINEOFF
|
||||
#BPMCHANGE 69.72
|
||||
#SCROLL 2.86
|
||||
,
|
||||
#BPMCHANGE 59.15
|
||||
#SCROLL 3.38
|
||||
,
|
||||
#BPMCHANGE 59.75
|
||||
#SCROLL 3.34
|
||||
,
|
||||
#BPMCHANGE 39.91
|
||||
#SCROLL 5.01
|
||||
,
|
||||
#BPMCHANGE 45.94
|
||||
#SCROLL 4.35
|
||||
,
|
||||
#MEASURE 1/32
|
||||
#BPMCHANGE 63.41
|
||||
#SCROLL 3.15
|
||||
,
|
||||
#BARLINEON
|
||||
#MEASURE 3/8
|
||||
#BPMCHANGE 84.03
|
||||
#SCROLL 2.38
|
||||
8000
|
||||
#BPMCHANGE 68.56
|
||||
#SCROLL 2.91
|
||||
00,
|
||||
|
||||
#GOGOEND
|
||||
|
||||
|
||||
#END
|
||||
|
||||
|
||||
COURSE:Normal
|
||||
LEVEL:5
|
||||
BALLOON:8,20
|
||||
SCOREINIT:5060
|
||||
SCOREDIFF:0
|
||||
|
||||
|
||||
#START
|
||||
|
||||
|
||||
000000000000000000000000000000000000000000000000,
|
||||
500000000000000000000000000000000000000000000000,
|
||||
000000000000000000000000000000000000000000000000,
|
||||
000000000000000000000000000000000000000000000000,
|
||||
000000000000000000000000000000000000000000000080,
|
||||
000000000000000000000000000000000000000000000000,
|
||||
000000000000000000000000000000000000000000000000,
|
||||
200000000000000000000000200000000000000000000000,
|
||||
200000000000200000000000200000000000200000000000,
|
||||
|
||||
#GOGOSTART
|
||||
100000000000100000100000000000100000000000100000,
|
||||
000000000000100000100000000000000000100000000000,
|
||||
100000000000100000100000000000100000000000100000,
|
||||
000000000000200000200000000000000000200000000000,
|
||||
100000000000100000100000000000100000000000100000,
|
||||
000000000000100000100000000000000000100000000000,
|
||||
100000000000100000100000000000100000000000100000,
|
||||
000000000000200000200000000000000000200000000000,
|
||||
|
||||
#GOGOEND
|
||||
100000000000000000000000100000100000100000000000,
|
||||
100000000000100000000000100000000000000000000000,
|
||||
100000000000000000000000100000100000100000000000,
|
||||
100000000000100000000000200000000000000000000000,
|
||||
100000000000000000000000100000100000100000000000,
|
||||
100000000000100000000000100000000000000000000000,
|
||||
100000000000000000000000100000000000000000600000,
|
||||
000000000000000000000000000080000000000000000000,
|
||||
100000000000000000000000100000100000100000000000,
|
||||
100000000000100000000000100000000000000000000000,
|
||||
100000000000000000000000200000000000000000000000,
|
||||
100000000000000000000000200000000000000000000000,
|
||||
100000000000000000000000100000000000200000000000,
|
||||
100000000000000000000000100000000000200000000000,
|
||||
300000000000000000000000700000000000000000000000,
|
||||
000000000000000000000000000000800000000000000000,
|
||||
|
||||
#GOGOSTART
|
||||
100000000000100000100000000000000000100000100000,
|
||||
000000000000200000200000000000000000100000100000,
|
||||
000000000000100000100000000000000000100000500000,
|
||||
000000000000000000000000000080000000000000000000,
|
||||
100000000000100000100000000000000000100000100000,
|
||||
000000000000200000200000000000000000100000100000,
|
||||
000000000000100000100000000000200000200000000000,
|
||||
500000000000000000000000000080000000000000000000,
|
||||
100000000000200000200000000000000000100000100000,
|
||||
000000000000200000200000000000000000100000100000,
|
||||
000000000000200000200000000000000000100000500000,
|
||||
000000000000000000000000000080000000000000000000,
|
||||
100000000000200000200000000000000000100000100000,
|
||||
000000000000200000200000000000000000100000000000,
|
||||
100000000000100000000000100000100000100000000000,
|
||||
300000000000300000000000300000000000600000000000,
|
||||
000000000000000000000000000000000000000000000000,
|
||||
000000000000000000000080000000000000000000000000,
|
||||
100000000000100000000000100000100000100000000000,
|
||||
300000000000300000000000300000000000600000000000,
|
||||
000000000000000000000000000000000000000000000000,
|
||||
000000000000000000000080000000000000000000000000,
|
||||
100000000000100000100000000000100000000000100000,
|
||||
000000000000100000100000000000000000100000000000,
|
||||
100000000000100000100000000000100000000000100000,
|
||||
000000000000200000200000000000000000200000000000,
|
||||
100000000000100000100000000000100000000000100000,
|
||||
000000000000100000100000000000000000100000000000,
|
||||
100000000000100000100000000000100000000000100000,
|
||||
000000000000200000200000000000000000200000000000,
|
||||
|
||||
#GOGOEND
|
||||
100000000000100000000000100000100000100000000000,
|
||||
200000000000000000000000200000000000000000000000,
|
||||
100000000000100000000000100000100000100000000000,
|
||||
200000000000000000000000200000000000000000000000,
|
||||
100000000000100000000000100000100000100000000000,
|
||||
300000000000300000000000300000000000600000000000,
|
||||
000000000000000000000000000000000000000000000000,
|
||||
000000000000000000000080000000000000000000000000,
|
||||
|
||||
#GOGOSTART
|
||||
300000000000000000000000000000000000000000000000,
|
||||
000000000000000000000000000000000000000000000000,
|
||||
#BPMCHANGE 171.89
|
||||
#SCROLL 1.16
|
||||
900000000000000000000000000000000000000000000000,
|
||||
#BPMCHANGE 196.41
|
||||
#SCROLL 1.01
|
||||
000000000000000000000000
|
||||
#BPMCHANGE 154.88
|
||||
#SCROLL 1.29
|
||||
000000000000
|
||||
#BPMCHANGE 136
|
||||
#SCROLL 1.47
|
||||
000000000000,
|
||||
#MEASURE 1/16
|
||||
#BPMCHANGE 95.7
|
||||
#SCROLL 2.08
|
||||
,
|
||||
#BARLINEOFF
|
||||
#BPMCHANGE 69.72
|
||||
#SCROLL 2.86
|
||||
,
|
||||
#BPMCHANGE 59.15
|
||||
#SCROLL 3.38
|
||||
,
|
||||
#BPMCHANGE 59.75
|
||||
#SCROLL 3.34
|
||||
,
|
||||
#BPMCHANGE 39.91
|
||||
#SCROLL 5.01
|
||||
,
|
||||
#BPMCHANGE 45.94
|
||||
#SCROLL 4.35
|
||||
,
|
||||
#MEASURE 1/32
|
||||
#BPMCHANGE 63.41
|
||||
#SCROLL 3.15
|
||||
,
|
||||
#BARLINEON
|
||||
#MEASURE 3/8
|
||||
#BPMCHANGE 84.03
|
||||
#SCROLL 2.38
|
||||
8000
|
||||
#BPMCHANGE 68.56
|
||||
#SCROLL 2.91
|
||||
00,
|
||||
|
||||
#GOGOEND
|
||||
|
||||
|
||||
#END
|
||||
|
||||
|
||||
COURSE:Easy
|
||||
LEVEL:3
|
||||
BALLOON:6,20
|
||||
SCOREINIT:9230
|
||||
SCOREDIFF:0
|
||||
|
||||
|
||||
#START
|
||||
|
||||
|
||||
000000000000000000000000000000000000000000000000,
|
||||
500000000000000000000000000000000000000000000000,
|
||||
000000000000000000000000000000000000000000000000,
|
||||
000000000000000000000000000000000000000000000000,
|
||||
000000000000000000000000000000000000000000000080,
|
||||
000000000000000000000000000000000000000000000000,
|
||||
000000000000000000000000000000000000000000000000,
|
||||
200000000000000000000000200000000000000000000000,
|
||||
200000000000200000000000200000000000200000000000,
|
||||
|
||||
#GOGOSTART
|
||||
100000000000000000100000000000000000000000100000,
|
||||
000000000000000000100000000000000000000000000000,
|
||||
100000000000000000100000000000000000000000100000,
|
||||
000000000000000000200000000000000000000000000000,
|
||||
100000000000000000100000000000000000000000100000,
|
||||
000000000000000000100000000000000000000000000000,
|
||||
100000000000000000100000000000000000000000100000,
|
||||
000000000000000000200000000000000000000000000000,
|
||||
|
||||
#GOGOEND
|
||||
100000000000000000000000100000000000000000000000,
|
||||
100000000000100000000000100000000000000000000000,
|
||||
100000000000000000000000000000000000000000000000,
|
||||
200000000000000000000000000000000000000000000000,
|
||||
100000000000000000000000100000000000000000000000,
|
||||
100000000000100000000000100000000000000000000000,
|
||||
100000000000000000000000000000000000000000600000,
|
||||
000000000000000000000000000080000000000000000000,
|
||||
100000000000000000000000100000000000000000000000,
|
||||
100000000000100000000000100000000000000000000000,
|
||||
100000000000000000000000100000000000000000000000,
|
||||
100000000000000000000000100000000000000000000000,
|
||||
100000000000000000000000000000000000000000000000,
|
||||
200000000000000000000000000000000000000000000000,
|
||||
300000000000000000000000700000000000000000000000,
|
||||
000000000000000000000000000000800000000000000000,
|
||||
|
||||
#GOGOSTART
|
||||
100000000000000000100000000000000000000000100000,
|
||||
000000000000000000100000000000000000000000100000,
|
||||
000000000000000000100000000000000000000000500000,
|
||||
000000000000000000000000000080000000000000000000,
|
||||
100000000000000000100000000000000000000000100000,
|
||||
000000000000000000100000000000000000000000100000,
|
||||
000000000000000000100000000000000000000000000000,
|
||||
500000000000000000000000000080000000000000000000,
|
||||
100000000000000000100000000000000000000000100000,
|
||||
000000000000000000100000000000000000000000100000,
|
||||
000000000000000000200000000000000000000000500000,
|
||||
000000000000000000000000000080000000000000000000,
|
||||
100000000000000000100000000000000000000000100000,
|
||||
000000000000000000200000000000000000000000000000,
|
||||
100000000000000000000000100000000000000000000000,
|
||||
300000000000300000000000300000000000600000000000,
|
||||
000000000000000000000000000000000000000000000000,
|
||||
000000000000000000000080000000000000000000000000,
|
||||
100000000000000000000000100000000000000000000000,
|
||||
300000000000300000000000300000000000600000000000,
|
||||
000000000000000000000000000000000000000000000000,
|
||||
000000000000000000000080000000000000000000000000,
|
||||
100000000000000000100000000000000000000000100000,
|
||||
000000000000000000100000000000000000000000000000,
|
||||
100000000000000000100000000000000000000000100000,
|
||||
000000000000000000200000000000000000000000000000,
|
||||
100000000000000000100000000000000000000000100000,
|
||||
000000000000000000100000000000000000000000000000,
|
||||
100000000000000000100000000000000000000000100000,
|
||||
000000000000000000200000000000000000000000000000,
|
||||
|
||||
#GOGOEND
|
||||
100000000000000000000000100000000000000000000000,
|
||||
200000000000000000000000000000000000000000000000,
|
||||
100000000000000000000000100000000000000000000000,
|
||||
200000000000000000000000000000000000000000000000,
|
||||
100000000000000000000000100000000000000000000000,
|
||||
300000000000300000000000300000000000600000000000,
|
||||
000000000000000000000000000000000000000000000000,
|
||||
000000000000000000000080000000000000000000000000,
|
||||
|
||||
#GOGOSTART
|
||||
300000000000000000000000000000000000000000000000,
|
||||
000000000000000000000000000000000000000000000000,
|
||||
#BPMCHANGE 171.89
|
||||
#SCROLL 1.16
|
||||
900000000000000000000000000000000000000000000000,
|
||||
#BPMCHANGE 196.41
|
||||
#SCROLL 1.01
|
||||
000000000000000000000000
|
||||
#BPMCHANGE 154.88
|
||||
#SCROLL 1.29
|
||||
000000000000
|
||||
#BPMCHANGE 136
|
||||
#SCROLL 1.47
|
||||
000000000000,
|
||||
#MEASURE 1/16
|
||||
#BPMCHANGE 95.7
|
||||
#SCROLL 2.08
|
||||
,
|
||||
#BARLINEOFF
|
||||
#BPMCHANGE 69.72
|
||||
#SCROLL 2.86
|
||||
,
|
||||
#BPMCHANGE 59.15
|
||||
#SCROLL 3.38
|
||||
,
|
||||
#BPMCHANGE 59.75
|
||||
#SCROLL 3.34
|
||||
,
|
||||
#BPMCHANGE 39.91
|
||||
#SCROLL 5.01
|
||||
,
|
||||
#BPMCHANGE 45.94
|
||||
#SCROLL 4.35
|
||||
,
|
||||
#MEASURE 1/32
|
||||
#BPMCHANGE 63.41
|
||||
#SCROLL 3.15
|
||||
,
|
||||
#BARLINEON
|
||||
#MEASURE 3/8
|
||||
#BPMCHANGE 84.03
|
||||
#SCROLL 2.38
|
||||
8000
|
||||
#BPMCHANGE 68.56
|
||||
#SCROLL 2.91
|
||||
00,
|
||||
|
||||
#GOGOEND
|
||||
|
||||
|
||||
#END
|
||||
|
||||
Reference in New Issue
Block a user