This commit is contained in:
2026-03-04 23:59:27 +09:00
parent 6e0312f5b4
commit 4b4e2b8c98
1128 changed files with 668765 additions and 0 deletions

487
tja/928.tja Normal file
View File

@@ -0,0 +1,487 @@
//TJADB Project
TITLE:Parousia
TITLEJA:Parousia
SUBTITLE:--xi/BOF2011
SUBTITLEJA:xi
WAVE:Parousia.ogg
BPM:158
OFFSET:-4.139
DEMOSTART:81.971
COURSE:Oni
LEVEL:10
BALLOON:19,19
SCOREINIT:460
SCOREDIFF:113
#START
#BPMCHANGE 79
1222,
20100011,
10021010,
#MEASURE 3/4
303,
#BPMCHANGE 158
#MEASURE 2/4
10222111,
#MEASURE 4/4
1220101210122112,
100200200000102020200000200000100100200100200000,
101010200000100000100200100000100200200100100200,
100200200000102020200000200000100000200000100100,
10101011,
4000100001112122,
200000200200100000200200100000200200101010101010,
200000000000000000202020200200100100201000000000,
100100100200101010200200100200200200102020200200,
200100200100202020100100200100200100101010200100,
100000000000000000000000200200202000200020002000,
100000101010200100200100202020202020100100100100,
202020202020101010101010202020101010200020002000,
14011401,
100000200200100000100000100100100100200010002000,
100000000100200010002000202020202020100000100000,
200200200200101010101010202020202020200020002000,
100000400000100100101010200000000000200000200000,
2000111121112211,
100000100100100010001000200100100200200100100200,
000000300000000000200000300000000000200200202020,
100000000000100100100100200000100000202020100000,
2000221221222211,
100000000100200200100100200020002000101010100000,
3022202221121122,
1122112221112121,
#SCROLL 0.66
1002,
22,
1011,
2211,
100000000122,
122100101010,
100000222212,
100020002000100000000000200000100000200200200200,
#SCROLL 1
10101012,
1000100010001022,
10101012,
1000100010221110,
3030001022112210,
300000300000000000100000400000100100202020202020,
1011101111111111,
70000008,
100200000000100000200200100020000000100100202020,
220000000000200000000000200000000000200000000000,
#GOGOSTART
1010212011101122,
1121221221102012,
1000201121102022,
1012211221202120,
3011221121102212,
100000100000100100100000400000004000000040000000,
100000101010200200202020100000101010200200202020,
100000100000100100200200100200200200101010101010,
1222200010102210,
1111201022102111,
100000300000000000100100100000400000101010101010,
111444,
3000200011112022,
100200200200100200200100202020200100200100100100,
200000300000300000100100101010101010101010101010,
2022111122112211,
#GOGOEND
100000000000100200100100200000100000200020002000,
100000000100200000100200200200200100200010001000,
200000300000200000200000100100100100200020002000,
100000000000200020002020101010100000101010101010,
11401140,
1010402211104040,
100000400000100100100100202020100000101010101010,
200100100100200100100100202010101010202010101010,
70000008,
#BPMCHANGE 154
12,
#BARLINEOFF
#BPMCHANGE 150
22,
#BARLINEON
#BPMCHANGE 146
12,
#BARLINEOFF
#BPMCHANGE 142
2
#BPMCHANGE 132
2,
#BPMCHANGE 105
#BARLINEON
220000000000000000000000000000000000000000000000,
#END
COURSE:Hard
LEVEL:6
BALLOON:13,13,16
#START
#BPMCHANGE 79
1222,
20100011,
10021010,
#MEASURE 3/4
303,
#BPMCHANGE 158
#MEASURE 2/4
10101110,
#MEASURE 4/4
1000001020002220,
2000001020002220,
2000002010002220,
2011,
30101011,
4000200022202020,
31111111,
32,
5,
000000000000000000000000000000000000000008000000,
10012000,
1011001020001000,
1110100010002020,
14011401,
10012000,
1011001020001000,
2220200011101000,
1040001110001010,
1021,
10002021,
0030001030001110,
10002011,
12,
100000000100000000100000200000002000000020000000,
500000000000000000000008000000000000200000200000,
500000000000000000000008000000000000000000000000,
#SCROLL 0.67
1002,
22,
1011,
2211,
1001,
100222,
1001,
1022,
#SCROLL 1
1112,
10102121,
1112,
10101121,
33012020,
33014000,
3030001110101110,
70000008,
3,
1222,
#GOGOSTART
1010200010101110,
1010200011102000,
1010200010101110,
11201222,
3000200010101110,
100100200000300030003000,
500000000000000008000000600000000000000008000000,
70000008,
1110400010102020,
1110400010102020,
0030000010300011,
111444,
3000200011102000,
1000200011102000,
03301010,
2000000022201010,
#GOGOEND
1021,
12,
1030000010001110,
1111,
11401140,
1110400011104040,
1040002020111020,
10212121,
70000008,
#BPMCHANGE 154
5,
#BARLINEOFF
#BPMCHANGE 152
,
#BARLINEON
#BPMCHANGE 146
,
#BARLINEOFF
#BPMCHANGE 142
000000000008000000000000
#BPMCHANGE 132
000000000000000000000000,
#BPMCHANGE 105
#BARLINEON
2,
#END
COURSE:Normal
LEVEL:6
BALLOON:8,8,10
#START
#BPMCHANGE 79
1222,
20100011,
10021010,
#MEASURE 3/4
303,
#BPMCHANGE 158
#MEASURE 2/4
1,
#MEASURE 4/4
10012000,
20012000,
20021000,
2011,
3111,
4222,
30101110,
32,
5,
000000000000000000000000000000000000000008000000,
10012000,
1121,
11,
14001400,
10012000,
1121,
21,
14001011,
1021,
12,
03013000,
10002011,
12,
100222,
500000000000000000000008000000000000200000000000,
500000000000000000000008000000000000000000000000,
#SCROLL 0.67
1002,
22,
1011,
2211,
1001,
12,
1001,
1022,
#SCROLL 1
1012,
1122,
1012,
1112,
33002020,
33004000,
33001111,
70000008,
3,
1222,
#GOGOSTART
10201011,
1112,
22,
10000222,
30002011,
100100404040,
500000000000000008000000600000000000000008000000,
70000008,
1402,
1402,
03000300,
111444,
3212,
12,
03301010,
20002011,
#GOGOEND
1021,
12,
13001000,
1111,
1414,
10401044,
04002020,
1222,
70000008,
#BPMCHANGE 154
5,
#BARLINEOFF
#BPMCHANGE 152
,
#BARLINEON
#BPMCHANGE 146
,
#BARLINEOFF
#BPMCHANGE 142
000000000008000000000000
#BPMCHANGE 132
000000000000000000000000,
#BPMCHANGE 105
#BARLINEON
2,
#END
COURSE:Easy
LEVEL:4
BALLOON:5,5,6
#START
#BPMCHANGE 79
1222,
20100011,
10021010,
#MEASURE 3/4
303,
#BPMCHANGE 158
#MEASURE 2/4
1,
#MEASURE 4/4
12,
22,
21,
0011,
3,
4,
3001,
32,
5,
000000000000000000000000000008000000000000000000,
12,
1120,
11,
04000400,
12,
1120,
21,
04000011,
1001,
10,
03003000,
10002011,
1,
12,
500000000000000000000008000000000000200000000000,
500000000000000000000008000000000000000000000000,
#SCROLL 0.67
1,
22,
1,
22,
2,
12,
1,
1022,
#SCROLL 1
11,
1110,
11,
1110,
33000000,
33004000,
33001010,
70000008,
3,
0222,
#GOGOSTART
1110,
1112,
22,
1001,
3011,
14,
500000000000000008000000600000000000000008000000,
70000008,
1402,
1402,
03000300,
600000000000000000000000000008000000000000000000,
3012,
12,
03301010,
20002011,
#GOGOEND
1001,
1,
03000000,
1111,
1414,
10401044,
04002000,
1222,
70000008,
#BPMCHANGE 154
5,
#BARLINEOFF
#BPMCHANGE 152
,
#BARLINEON
#BPMCHANGE 146
,
#BARLINEOFF
#BPMCHANGE 142
000000000008000000000000
#BPMCHANGE 132
000000000000000000000000,
#BPMCHANGE 105
#BARLINEON
2,
#END