tja
This commit is contained in:
580
tja/934.tja
Normal file
580
tja/934.tja
Normal file
@@ -0,0 +1,580 @@
|
||||
//TJADB Project
|
||||
TITLE:ANiMA
|
||||
TITLEJA:ANiMA
|
||||
SUBTITLE:--xi/DEEMO
|
||||
SUBTITLEJA:xi 「DEEMO」より
|
||||
BPM:183.5
|
||||
WAVE:ANiMA.ogg
|
||||
OFFSET:-1.542
|
||||
DEMOSTART:23.749
|
||||
|
||||
COURSE:Oni
|
||||
LEVEL:10
|
||||
BALLOON:3,5
|
||||
SCOREINIT:360
|
||||
SCOREDIFF:80
|
||||
|
||||
|
||||
#START
|
||||
|
||||
|
||||
2,
|
||||
2,
|
||||
2,
|
||||
0222,
|
||||
2,
|
||||
22,
|
||||
22,
|
||||
0112,
|
||||
110000000000000200100200,
|
||||
111000000000000200100100,
|
||||
110000000000200000000000,
|
||||
110000000000100000000000,
|
||||
101000000000000000200000100000200000100100100100,
|
||||
2000100010001111,
|
||||
200000000200100200100200100200100200100200102010,
|
||||
500000000000000000000008000000001000100010001000,
|
||||
2000200011112222,
|
||||
|
||||
#GOGOSTART
|
||||
100000200200100000300000100100200000300000201010,
|
||||
100000300000200100200000300000101010200000000000,
|
||||
300000200200100000300000100100200000300000101010,
|
||||
100400400000300111200000,
|
||||
300000100200100000300000100200100000300000102020,
|
||||
100000300000100200100000300000101010200000000000,
|
||||
300000200200100000300000200200100000300000001010,
|
||||
|
||||
#GOGOEND
|
||||
1040400021112222,
|
||||
|
||||
#GOGOSTART
|
||||
1221122112101211,
|
||||
200000100100201010100000300000101010000100200100,
|
||||
100000100200100200200100100000202020100000000000,
|
||||
3000122112211221,
|
||||
100000202020100000000000300000200200100100100100,
|
||||
200000101010200000000000400000100100200100200100,
|
||||
200000100100200100200100200000000000202000000000,
|
||||
|
||||
#GOGOEND
|
||||
100000200200200200200200100000101010200000000000,
|
||||
|
||||
#GOGOSTART
|
||||
300
|
||||
#SCROLL 1.28
|
||||
333333333,
|
||||
300
|
||||
#SCROLL 1
|
||||
111100000100000100000,
|
||||
1011211120121112,
|
||||
1021112110001000,
|
||||
300
|
||||
#SCROLL 1.28
|
||||
333333333,
|
||||
300
|
||||
#SCROLL 1
|
||||
111200000100000100000,
|
||||
1022112120112212,
|
||||
|
||||
#GOGOEND
|
||||
1000111110001000,
|
||||
|
||||
#GOGOSTART
|
||||
300000000000200010002000100010001000100000100100,
|
||||
1021102110211020,
|
||||
300000000000100020001000200020002000200000100100,
|
||||
1021102110211020,
|
||||
300000000000200010002000100010001000100000100200,
|
||||
2021101220211022,
|
||||
1021102210121012,
|
||||
|
||||
#GOGOEND
|
||||
1010101111117080,
|
||||
|
||||
#GOGOSTART
|
||||
2121121221211212,
|
||||
2121121221211212,
|
||||
2121121221211210,
|
||||
44334433,
|
||||
|
||||
#GOGOEND
|
||||
3000122211102220,
|
||||
1110222011102220,
|
||||
3000122211102220,
|
||||
1110222011102220,
|
||||
11121112
|
||||
#SCROLL 1.28
|
||||
30000000,
|
||||
#SCROLL 1
|
||||
11221122
|
||||
#SCROLL 1.28
|
||||
30000000,
|
||||
#SCROLL 1
|
||||
12221222
|
||||
#SCROLL 1.28
|
||||
3000
|
||||
#SCROLL 1
|
||||
4000,
|
||||
1111111110003000,
|
||||
3000101012221220,
|
||||
1210121012121210,
|
||||
3000101012221220,
|
||||
1210121012121210,
|
||||
11121112
|
||||
#SCROLL 1.28
|
||||
30
|
||||
#SCROLL 1
|
||||
202020,
|
||||
11221122
|
||||
#SCROLL 1.28
|
||||
30
|
||||
#SCROLL 1
|
||||
202020,
|
||||
12221222
|
||||
#SCROLL 1.28
|
||||
30
|
||||
#SCROLL 1
|
||||
202020,
|
||||
1111222270008000,
|
||||
|
||||
#GOGOSTART
|
||||
#SCROLL 1.28
|
||||
3030
|
||||
#SCROLL 1
|
||||
2222
|
||||
#SCROLL 1.28
|
||||
3030
|
||||
#SCROLL 1
|
||||
2222,
|
||||
#SCROLL 1.28
|
||||
300000300000
|
||||
#SCROLL 1
|
||||
200200200200
|
||||
#SCROLL 1.28
|
||||
300000
|
||||
#SCROLL 1
|
||||
202020
|
||||
#SCROLL 1.28
|
||||
300000000000,
|
||||
3030
|
||||
#SCROLL 1
|
||||
1111
|
||||
#SCROLL 1.28
|
||||
3030
|
||||
#SCROLL 1
|
||||
1111,
|
||||
#SCROLL 1.28
|
||||
300000300000
|
||||
#SCROLL 1
|
||||
100100100100
|
||||
#SCROLL 1.28
|
||||
400000
|
||||
#SCROLL 1
|
||||
101010
|
||||
#SCROLL 1.28
|
||||
400000000000,
|
||||
|
||||
#GOGOEND
|
||||
#SCROLL 1
|
||||
300000000000200000100000200010200100200100201020,
|
||||
100000100100100100100100500000000000000008000000,
|
||||
|
||||
#GOGOSTART
|
||||
1040111210121212,
|
||||
1040111220302122,
|
||||
100400101020200030003000,
|
||||
300000200100200100200200100000101010200000000000,
|
||||
3011112121212122,
|
||||
2012122212221222,
|
||||
100100402220402220402220,
|
||||
301210301210301210301210,
|
||||
300000000000100100100200200000202020201010100100,
|
||||
|
||||
#GOGOEND
|
||||
#SCROLL 1.28
|
||||
3,
|
||||
|
||||
|
||||
#END
|
||||
|
||||
|
||||
COURSE:Hard
|
||||
LEVEL:7
|
||||
BALLOON:14,4,26
|
||||
SCOREINIT:400
|
||||
SCOREDIFF:100
|
||||
|
||||
|
||||
#START
|
||||
|
||||
|
||||
2,
|
||||
2,
|
||||
2,
|
||||
0222,
|
||||
2,
|
||||
22,
|
||||
22,
|
||||
0222,
|
||||
10000222,
|
||||
10000222,
|
||||
12,
|
||||
11,
|
||||
1000002020201110,
|
||||
1000200020001110,
|
||||
7,
|
||||
08,
|
||||
|
||||
2000200011102000,
|
||||
|
||||
#GOGOSTART
|
||||
10120210,
|
||||
12021020,
|
||||
10120211,
|
||||
23302020,
|
||||
10120210,
|
||||
12021020,
|
||||
10120211,
|
||||
#GOGOEND
|
||||
2030300011101110,
|
||||
|
||||
#GOGOSTART
|
||||
1000100010001111,
|
||||
1000222010001111,
|
||||
1000111020002000,
|
||||
1000100022202220,
|
||||
3000300030002220,
|
||||
3000300030001111,
|
||||
1000222010002000,
|
||||
#GOGOEND
|
||||
1000222220002000,
|
||||
|
||||
#GOGOSTART
|
||||
300111111111,
|
||||
1111,
|
||||
1000222010002220,
|
||||
1000222220002000,
|
||||
300111111111,
|
||||
1111,
|
||||
1000222010002220,
|
||||
#GOGOEND
|
||||
1000111110001000,
|
||||
|
||||
#GOGOSTART
|
||||
300000000000200020002000200000000000000000200200,
|
||||
2022202220222020,
|
||||
300000000000200020002000200000000000000000200200,
|
||||
2022201110111010,
|
||||
300000000000200020002000200000000000000000200200,
|
||||
2022201110111022,
|
||||
2022201110111011,
|
||||
|
||||
#GOGOEND
|
||||
100000000000100000000000500000000008000000000000,
|
||||
|
||||
#GOGOSTART
|
||||
11111111,
|
||||
1110101011101010,
|
||||
1110111011101110,
|
||||
33333333,
|
||||
|
||||
#GOGOEND
|
||||
3000222220002000,
|
||||
2222,
|
||||
3000222220002000,
|
||||
2222,
|
||||
2220222030000000,
|
||||
2220222030000000,
|
||||
2220222030003000,
|
||||
1110111030003000,
|
||||
|
||||
30112020,
|
||||
1110111022202220,
|
||||
30112020,
|
||||
1110111022202220,
|
||||
1110111020202020,
|
||||
1110111020202020,
|
||||
1110111020202020,
|
||||
1110222070008000,
|
||||
|
||||
#GOGOSTART
|
||||
3030222030302220,
|
||||
3030222030003000,
|
||||
3030222030302220,
|
||||
3030222030003000,
|
||||
|
||||
#GOGOEND
|
||||
7,
|
||||
0008,
|
||||
|
||||
#GOGOSTART
|
||||
1020111110222010,
|
||||
1020111110201111,
|
||||
100200101010100030003000,
|
||||
3000111020002000,
|
||||
1022201010101011,
|
||||
1020101110201011,
|
||||
100111111111,
|
||||
111111111111,
|
||||
|
||||
3000222220222220,
|
||||
|
||||
#GOGOEND
|
||||
3,
|
||||
,
|
||||
,
|
||||
,
|
||||
#END
|
||||
|
||||
COURSE:Normal
|
||||
LEVEL:6
|
||||
BALLOON:18,7,7,6,15
|
||||
SCOREINIT:540
|
||||
SCOREDIFF:140
|
||||
|
||||
#START
|
||||
2,
|
||||
2,
|
||||
2,
|
||||
0222,
|
||||
2,
|
||||
2,
|
||||
2,
|
||||
0222,
|
||||
|
||||
10000111,
|
||||
10000111,
|
||||
12,
|
||||
22,
|
||||
20011110,
|
||||
1111,
|
||||
7,
|
||||
08,
|
||||
|
||||
,
|
||||
|
||||
#GOGOSTART
|
||||
10010010,
|
||||
01002020,
|
||||
10010010,
|
||||
01102020,
|
||||
10010010,
|
||||
01002020,
|
||||
10010010,
|
||||
|
||||
#GOGOEND
|
||||
01102220,
|
||||
|
||||
#GOGOSTART
|
||||
10101011,
|
||||
10201022,
|
||||
20111020,
|
||||
1120,
|
||||
3332,
|
||||
3332,
|
||||
1212,
|
||||
#GOGOEND
|
||||
500000000000000000000000000000000008000000000000,
|
||||
|
||||
#GOGOSTART
|
||||
300111100100,
|
||||
1111,
|
||||
10111011,
|
||||
7008,
|
||||
300111100100,
|
||||
1111,
|
||||
10111011,
|
||||
#GOGOEND
|
||||
7008,
|
||||
|
||||
#GOGOSTART
|
||||
300000202020200000000200,
|
||||
2222,
|
||||
300000202020200000000200,
|
||||
20202220,
|
||||
300000202020200000000200,
|
||||
20202222,
|
||||
20101111,
|
||||
#GOGOEND
|
||||
500000000000000000000000000000000008000000000000,
|
||||
|
||||
#GOGOSTART
|
||||
11101110,
|
||||
11101110,
|
||||
11101110,
|
||||
500000000000000000000000000000000008000000000000,
|
||||
#GOGOEND
|
||||
|
||||
30222020,
|
||||
2222,
|
||||
30222020,
|
||||
2222,
|
||||
22203000,
|
||||
22203000,
|
||||
22203030,
|
||||
11103030,
|
||||
|
||||
30222020,
|
||||
22222020,
|
||||
30222020,
|
||||
22222020,
|
||||
11104011,
|
||||
11104011,
|
||||
11104011,
|
||||
7008,
|
||||
|
||||
#GOGOSTART
|
||||
33003300,
|
||||
33003030,
|
||||
33003300,
|
||||
33003030,
|
||||
#GOGOEND
|
||||
7,
|
||||
0008,
|
||||
|
||||
#GOGOSTART
|
||||
11002020,
|
||||
11002220,
|
||||
100100000000200020002000,
|
||||
2011,
|
||||
10022011,
|
||||
1222,
|
||||
1111,
|
||||
111100111100,
|
||||
|
||||
500000000000000000000000000000000008000000000000,
|
||||
#GOGOEND
|
||||
3,
|
||||
,
|
||||
,
|
||||
,
|
||||
#END
|
||||
|
||||
COURSE:Easy
|
||||
LEVEL:5
|
||||
BALLOON:13,5,5,5,12,5
|
||||
SCOREINIT:500
|
||||
SCOREDIFF:140
|
||||
|
||||
#START
|
||||
,
|
||||
,
|
||||
,
|
||||
,
|
||||
2,
|
||||
2,
|
||||
2,
|
||||
,
|
||||
|
||||
1,
|
||||
1,
|
||||
11,
|
||||
11,
|
||||
1,
|
||||
1111,
|
||||
7,
|
||||
08,
|
||||
|
||||
,
|
||||
|
||||
#GOGOSTART
|
||||
10010010,
|
||||
02,
|
||||
10010010,
|
||||
02,
|
||||
10010010,
|
||||
02,
|
||||
10010010,
|
||||
|
||||
#GOGOEND
|
||||
02,
|
||||
|
||||
#GOGOSTART
|
||||
11,
|
||||
1110,
|
||||
1011,
|
||||
1110,
|
||||
3330,
|
||||
3330,
|
||||
1111,
|
||||
|
||||
#GOGOEND
|
||||
500000000000000000000000000008000000000000000000,
|
||||
|
||||
#GOGOSTART
|
||||
3011,
|
||||
1111,
|
||||
11,
|
||||
7008,
|
||||
3011,
|
||||
1111,
|
||||
11,
|
||||
|
||||
#GOGOEND
|
||||
7008,
|
||||
|
||||
#GOGOSTART
|
||||
32,
|
||||
2222,
|
||||
32,
|
||||
2222,
|
||||
32,
|
||||
2222,
|
||||
1111,
|
||||
#GOGOEND
|
||||
500000000000000000000000000008000000000000000000,
|
||||
|
||||
#GOGOSTART
|
||||
1111,
|
||||
1111,
|
||||
1111,
|
||||
500000000000000000000000000008000000000000000000,
|
||||
|
||||
#GOGOEND
|
||||
3022,
|
||||
2222,
|
||||
3022,
|
||||
2222,
|
||||
13,
|
||||
13,
|
||||
13,
|
||||
500000000000000000000000000008000000000000000000,
|
||||
|
||||
3022,
|
||||
2222,
|
||||
3022,
|
||||
2222,
|
||||
14,
|
||||
14,
|
||||
14,
|
||||
7008,
|
||||
|
||||
#GOGOSTART
|
||||
33,
|
||||
3033,
|
||||
33,
|
||||
3033,
|
||||
|
||||
#GOGOEND
|
||||
7,
|
||||
0008,
|
||||
|
||||
#GOGOSTART
|
||||
11001010,
|
||||
11001010,
|
||||
11007000,
|
||||
8011,
|
||||
10011010,
|
||||
1111,
|
||||
3333,
|
||||
3333,
|
||||
|
||||
500000000000000000000000000008000000000000000000,
|
||||
|
||||
#GOGOEND
|
||||
3,
|
||||
,
|
||||
,
|
||||
,
|
||||
#END
|
||||
Reference in New Issue
Block a user