tja
This commit is contained in:
349
tja/936.tja
Normal file
349
tja/936.tja
Normal file
@@ -0,0 +1,349 @@
|
||||
//TJADB Project
|
||||
TITLE:Smile! Smile! Smile!
|
||||
TITLEJA:Smile! Smile! Smile!
|
||||
SUBTITLE:--Yuka Ozaki/Shounen Ashibe GO! GO! Goma-chan
|
||||
SUBTITLEJA:「少年アシベ GO!GO!ゴマちゃん」より
|
||||
BPM:280
|
||||
WAVE:Smile! Smile! Smile!.ogg
|
||||
OFFSET:-1.925
|
||||
DEMOSTART:29.978
|
||||
|
||||
COURSE:Edit
|
||||
LEVEL:9
|
||||
SCOREINIT:3350
|
||||
SCOREDIFF:0
|
||||
|
||||
|
||||
#START
|
||||
|
||||
|
||||
22222222,
|
||||
30302200,
|
||||
30322200,
|
||||
3321,
|
||||
44,
|
||||
1212,
|
||||
11201120,
|
||||
1010101011101010,
|
||||
44,
|
||||
1000200011102000,
|
||||
1000200011102000,
|
||||
1000200011102020,
|
||||
12221022,
|
||||
1000222010002000,
|
||||
1000222010002000,
|
||||
11221122,
|
||||
1110101020001010,
|
||||
4141,
|
||||
40102210,
|
||||
10201120,
|
||||
1110201000102000,
|
||||
4141,
|
||||
40102210,
|
||||
1022202020201000,
|
||||
24,
|
||||
1000222010002000,
|
||||
1000222010002000,
|
||||
1000222010102000,
|
||||
1110202011102020,
|
||||
10201120,
|
||||
1110101020202000,
|
||||
3222,
|
||||
10101210,//33
|
||||
|
||||
#GOGOSTART
|
||||
1000202011102000,
|
||||
1000202011102000,
|
||||
1110202011102020,
|
||||
12221222,
|
||||
1000202011102000,
|
||||
1000202011102000,
|
||||
32223222,
|
||||
3000400022202020,
|
||||
1000202011102000,
|
||||
1000202011102000,
|
||||
1110202011102020,
|
||||
12221011,
|
||||
1000111110001000,
|
||||
1111100022221000,//47
|
||||
|
||||
#GOGOEND
|
||||
5,
|
||||
000000000000000000000000000000000000000000000008,
|
||||
|
||||
|
||||
#END
|
||||
|
||||
|
||||
COURSE:Oni
|
||||
LEVEL:5
|
||||
BALLOON:7,6
|
||||
SCOREINIT:6030
|
||||
SCOREDIFF:0
|
||||
|
||||
|
||||
#START
|
||||
|
||||
|
||||
#SCROLL 0.75
|
||||
,
|
||||
1100,
|
||||
1100,
|
||||
1100,
|
||||
11,
|
||||
10101110,
|
||||
1110,
|
||||
7008,
|
||||
22,
|
||||
10201120,
|
||||
10201120,
|
||||
10201120,
|
||||
11,
|
||||
10201120,
|
||||
10201120,
|
||||
10201120,
|
||||
11,
|
||||
22,
|
||||
20102210,
|
||||
10201120,
|
||||
10201120,
|
||||
22,
|
||||
20102210,
|
||||
1212,
|
||||
14,
|
||||
10201120,
|
||||
10201120,
|
||||
10201120,
|
||||
3434,
|
||||
6,
|
||||
000000000000000000000008000000000000000000000000,
|
||||
3,
|
||||
,//33
|
||||
|
||||
#GOGOSTART
|
||||
10201120,
|
||||
10201120,
|
||||
1212,
|
||||
11201120,
|
||||
10201120,
|
||||
10201120,
|
||||
33,
|
||||
7008,
|
||||
10201120,
|
||||
10201120,
|
||||
10201120,
|
||||
11201120,
|
||||
10222010,
|
||||
22201020,//47
|
||||
|
||||
#GOGOEND
|
||||
5,
|
||||
000000000000000000000000000000000000000000000008,
|
||||
|
||||
|
||||
#END
|
||||
|
||||
|
||||
COURSE:Hard
|
||||
LEVEL:4
|
||||
BALLOON:5
|
||||
SCOREINIT:8670
|
||||
SCOREDIFF:0
|
||||
|
||||
|
||||
#START
|
||||
|
||||
|
||||
#SCROLL 0.75
|
||||
,
|
||||
1100,
|
||||
1100,
|
||||
1100,
|
||||
11,
|
||||
1100,
|
||||
1100,
|
||||
7008,
|
||||
22,
|
||||
1110,
|
||||
1110,
|
||||
1111,
|
||||
22,
|
||||
1110,
|
||||
1110,
|
||||
1111,
|
||||
11,
|
||||
22,
|
||||
2012,
|
||||
1210,
|
||||
1210,
|
||||
22,
|
||||
2012,
|
||||
1210,
|
||||
24,
|
||||
1120,
|
||||
1120,
|
||||
1121,
|
||||
10101110,
|
||||
5,
|
||||
000000000000000000000008000000000000000000000000,
|
||||
3,
|
||||
,//33
|
||||
|
||||
#GOGOSTART
|
||||
1212,
|
||||
0210,
|
||||
1222,
|
||||
0210,
|
||||
1212,
|
||||
0210,
|
||||
33,
|
||||
3,
|
||||
1212,
|
||||
0210,
|
||||
34,
|
||||
34,
|
||||
10111010,
|
||||
11100010,//47
|
||||
|
||||
#GOGOEND
|
||||
5,
|
||||
000000000000000000000000000000000000000000000008,
|
||||
|
||||
|
||||
#END
|
||||
|
||||
|
||||
COURSE:Normal
|
||||
LEVEL:2
|
||||
BALLOON:6,6
|
||||
SCOREINIT:17480
|
||||
SCOREDIFF:0
|
||||
|
||||
|
||||
#START
|
||||
|
||||
|
||||
#SCROLL 0.75
|
||||
,
|
||||
1100,
|
||||
1100,
|
||||
1100,
|
||||
11,
|
||||
1100,
|
||||
1100,
|
||||
7,
|
||||
8,
|
||||
1,
|
||||
1,
|
||||
1,
|
||||
22,
|
||||
1,
|
||||
1,
|
||||
11,
|
||||
1,
|
||||
22,
|
||||
2,
|
||||
1,
|
||||
1,
|
||||
22,
|
||||
2,
|
||||
11,
|
||||
1,
|
||||
12,
|
||||
12,
|
||||
12,
|
||||
1,
|
||||
5,
|
||||
000000000000000000000000000000000000000000000008,
|
||||
,
|
||||
,//33
|
||||
|
||||
#GOGOSTART
|
||||
11,
|
||||
1,
|
||||
7,
|
||||
8,
|
||||
11,
|
||||
1,
|
||||
33,
|
||||
3,
|
||||
11,
|
||||
1,
|
||||
11,
|
||||
22,
|
||||
5,
|
||||
000000000000000000000008000000000000000000000000,//47
|
||||
|
||||
#GOGOEND
|
||||
3,
|
||||
|
||||
|
||||
#END
|
||||
|
||||
|
||||
COURSE:Easy
|
||||
LEVEL:2
|
||||
BALLOON:4,4
|
||||
SCOREINIT:24320
|
||||
SCOREDIFF:0
|
||||
|
||||
|
||||
#START
|
||||
|
||||
|
||||
#SCROLL 0.75
|
||||
,
|
||||
1,
|
||||
1,
|
||||
1,
|
||||
11,
|
||||
1,
|
||||
1,
|
||||
7,
|
||||
8,
|
||||
1,
|
||||
1,
|
||||
1,
|
||||
11,
|
||||
1,
|
||||
1,
|
||||
1,
|
||||
,
|
||||
22,
|
||||
2,
|
||||
1,
|
||||
,
|
||||
22,
|
||||
2,
|
||||
1,
|
||||
1,
|
||||
1,
|
||||
1,
|
||||
3,
|
||||
3,
|
||||
6,
|
||||
000000000000000000000000000000000000000000000008,
|
||||
,
|
||||
,//33
|
||||
|
||||
#GOGOSTART
|
||||
1,
|
||||
1,
|
||||
7,
|
||||
8,
|
||||
1,
|
||||
1,
|
||||
33,
|
||||
3,
|
||||
2,
|
||||
2,
|
||||
11,
|
||||
11,
|
||||
5,
|
||||
000000000000000000000000000000000000000000000008,//47
|
||||
|
||||
#GOGOEND
|
||||
|
||||
|
||||
#END
|
||||
|
||||
Reference in New Issue
Block a user