This commit is contained in:
2026-03-04 23:59:27 +09:00
parent 6e0312f5b4
commit 4b4e2b8c98
1128 changed files with 668765 additions and 0 deletions

692
tja/940.tja Normal file
View File

@@ -0,0 +1,692 @@
//TJADB Project
TITLE:wonderful ROUTINE
TITLEJA:wonderful ROUTINE
SUBTITLE:--Yusuke Kudo
BPM:160
WAVE:wonderful ROUTINE.ogg
OFFSET:-1.625
DEMOSTART:51.125
COURSE:Oni
LEVEL:10
BALLOON:3
SCOREINIT:490
SCOREDIFF:120
#START
1001002211002200,
1010201010120120,
1010204010110110,
100202020100000000000000100000000200100000200100,
1001002211002200,
1010201010120120,
1010204010110110,
100202020100000000000000100000000200100000200100,
1004001000001001,
11210120,
100222100100222100100211,
#MEASURE 6/4
100000100000201010100000100100200000000000200200
#SCROLL 1.75
100100100100100100100100,
#SCROLL 1
#MEASURE 4/4
1001002211002200,
1010201010120120,
#SCROLL 1.75
11111111
#SCROLL 1
20110110,
100000200100000000000000101010101010200000200200,
10010022
#SCROLL 1.75
11111111,
#SCROLL 1
1210201010120120,
1111221010120110,
#SCROLL 1.75
22222222
#SCROLL 1
10021021,
1001002211002200,
10102010
#SCROLL 1.75
22222222,
#SCROLL 1
1010202010110120,
100000101010100000000000200000000200100000200100,
1022202222222020,
2022202022222121,
102010400100400100400100,
2111000020202020,
1112000011002100,
1122000022221000,
1222001110101010,
2222000022222020,
#SCROLL 5
#MEASURE 2/4
0608,
#SCROLL 1
#MEASURE 4/4
1000201100102211,
000000100000100100200100100100000100100000102020,
1222221211011120,
1120120210222010,
2021101110221012,
2022000011112012,
100000200200202020100200100200100200100200200200,
100100000100200000100000100100202020100100202020,
#MEASURE 1/4
1110,
#MEASURE 4/4
100000200200100200100100200200101010200100200000,
#MEASURE 3/4
122112122121,
#MEASURE 4/4
1011221011221011,
#MEASURE 3/4
221011221012,
#MEASURE 4/4
1011112270801211,
#MEASURE 3/4
121211121221,
#MEASURE 4/4
1011221011221022,
111010101040000000000000,
0000222211112211,
#MEASURE 2/4
200200200200101010101010,
#MEASURE 4/4
202010102020100000202010101010100000202010100200,
#MEASURE 3/4
121111121111,
#SCROLL 2
400000400000
#SCROLL 1
111111,
#MEASURE 4/4
1022121012112112,
100000100100100200100000202000000202000000200200,
#MEASURE 3/4
221022121022,
#MEASURE 5/4
20111210111210111210,
#MEASURE 1/16
#SCROLL 1.05
2,
#SCROLL 1.1
2,
#SCROLL 1.16
2,
#SCROLL 1.22
2,
#SCROLL 1.28
2,
#SCROLL 1.35
2,
#SCROLL 1.41
2,
#SCROLL 1.49
2,
#BPMCHANGE 240
#SCROLL 1.04
2,
#SCROLL 1.09
2,
#SCROLL 1.15
2,
#SCROLL 1.21
2,
#SCROLL 1.27
2,
#SCROLL 1.33
2,
#BPMCHANGE 160
#MEASURE 4/4
#SCROLL 3
3,
#SCROLL 1.65
#MEASURE 2/4
44,
#MEASURE 4/4
#GOGOSTART
#SCROLL 1.56
1002002222002200,
#SCROLL 1.48
,
#SCROLL 1.4
1002002222002200,
#SCROLL 1.32
0000000010010010,
#SCROLL 1.25
1002002222002200,
#SCROLL 1.18
,
#SCROLL 1.2
1002002212002200,
#SCROLL 1.06
100010001021
#SCROLL 1.75
4000,
#SCROLL 1
1002102211021202,
1001120212011202,
1002102211021202,
100000000100100200000200100200000100100200202020,
1002102211021202,
100000000200100200000200100200000200100200202020,
#GOGOEND
1001001111001100,
,
#GOGOSTART
#SCROLL 4
300300
#SCROLL 7.7
333300
#SCROLL 8
3300,
4
#GOGOEND
300,
#END
COURSE:Hard
LEVEL:8
BALLOON:4,24
#START
1001001111002200,
1000200010010020,
1000204000100100,
1021000010011011,
1001001111002200,
1000200010010020,
1000204000100100,
1021000010011011,
1004001000001000,
11210120,
1011101011101011,
#MEASURE 6/4
101011101020002011111111,
#MEASURE 4/4
1001001111002200,
1000200010010020,
1111111110100100,
20101012,
1001001011111111,
1000200010010020,
1010201010100100,
2222222220011011,
1001001111002200,
1010200022222222,
2000200010100100,
1021000020011011,
10222220,
22222022,
1444,
40002222,
1022,
1000000022222000,
1000001110101000,
20002222,
#SCROLL 8
#MEASURE 2/4
0608,
#SCROLL 1
#MEASURE 4/4
1000200100102001,
01021011,
12211221,
12121221,
2070000080002002,
2022000010002011,
1022202010102020,
11221212,
#MEASURE 1/4
,
#MEASURE 4/4
1011102011102000,
#MEASURE 3/4
111020111020,
#MEASURE 4/4
1111100011102011,
#MEASURE 3/4
102011102000,
#MEASURE 4/4
1011101010001011,
#MEASURE 3/4
101010201110,
#MEASURE 4/4
1020111020111020,
100007000000,
,
#MEASURE 2/4
8,
#MEASURE 4/4
1001001111002200,
#MEASURE 3/4
101110201110,
440,
#MEASURE 4/4
1022201022201000,
1011100010010011,
#MEASURE 3/4
110022001022,
#MEASURE 5/4
20101110200010111010,
#MEASURE 1/16
#BARLINEOFF
5,
#SCROLL 1.2
,
#SCROLL 1.3
,
#SCROLL 1.4
,
#SCROLL 1.5
,
#SCROLL 1.6
,
#SCROLL 1.7
,
#SCROLL 1.8
,
#BPMCHANGE 240
#SCROLL 1.3
,
#SCROLL 1.4
,
#SCROLL 1.5
,
#SCROLL 1.6
,
#SCROLL 1.7
,
#SCROLL 1.8
8,
#BPMCHANGE 160
#MEASURE 1/4
#SCROLL 1
,
#MEASURE 3/4
#BARLINEON
,
#MEASURE 2/4
44,
#MEASURE 4/4
#GOGOSTART
1002002222002200,
,
1002002222002200,
0000000010010010,
1002002222002200,
,
1002002222002200,
10101140,
1001001111002200,
1010201110102010,
1001001111002200,
1010201111102010,
1001001111002200,
1010201110102010,
#GOGOEND
1001001111001100,
,
#GOGOSTART
1001001111001100,
4
#GOGOEND
300,
#END
COURSE:Normal
LEVEL:6
BALLOON:6,17
#START
1001001010002000,
1210,
10240000,
31,
1001001010002000,
1210,
10240000,
31,
1004001000001000,
10210120,
12112112,
#MEASURE 6/4
100000100000200000100000100000200000000000000000500000000000000008000000,
#MEASURE 4/4
1001001010002000,
1210,
500000000000000008000000100000000000000000000000,
2110,
1001001010002000,
1210,
1210,
500000000000000008000000200000000000000000000000,
1001001010002000,
100000100000100000000000500000000000000008000000,
2210,
3021,
10202220,
20202220,
1444,
40002220,
1022,
10002220,
10001110,
20002222,
#SCROLL 8
#MEASURE 2/4
0608,
#SCROLL 1
#MEASURE 4/4
1000200100002000,
01021010,
10210210,
21021021,
07000080,
20001021,
02021021,
02102121,
#MEASURE 1/4
,
#MEASURE 4/4
11101120,
#MEASURE 3/4
112112,
#MEASURE 4/4
01101121,
#MEASURE 3/4
121120,
#MEASURE 4/4
10111010,
#MEASURE 3/4
111211,
#MEASURE 4/4
21112112,
100007000000,
,
#MEASURE 2/4
8,
#MEASURE 4/4
1001001010002000,
#MEASURE 3/4
111210,
440,
#MEASURE 4/4
12212210,
1000100010010010,
#MEASURE 3/4
102012,
#MEASURE 5/4
2112201111,
#MEASURE 1/16
#BARLINEOFF
5,
#SCROLL 1.2
,
#SCROLL 1.3
,
#SCROLL 1.4
,
#SCROLL 1.5
,
#SCROLL 1.6
,
#SCROLL 1.7
,
#SCROLL 1.8
,
#BPMCHANGE 240
#SCROLL 1.3
,
#SCROLL 1.4
,
#SCROLL 1.5
,
#SCROLL 1.6
,
#SCROLL 1.7
,
#SCROLL 1.8
8,
#BPMCHANGE 160
#MEASURE 1/4
#SCROLL 1
,
#MEASURE 3/4
#BARLINEON
,
#MEASURE 2/4
44,
#MEASURE 4/4
#GOGOSTART
1002002020002000,
,
1002002020002000,
0000000010010010,
1002002020002000,
,
1002002020002000,
10101140,
1001001010002000,
11221120,
1001001010002000,
11211120,
1001001010002000,
11221120,
#GOGOEND
1001001010001000,
,
#GOGOSTART
1001001010001000,
4
#GOGOEND
300,
#END
COURSE:Easy
LEVEL:5
BALLOON:4,14
#START
1001001000002000,
1110,
1,
31,
1001001000002000,
1110,
1,
31,
1,
10010010,
10010010,
#MEASURE 6/4
010010000000,
#MEASURE 4/4
1001001000002000,
1110,
01,
21,
1001001000002000,
1110,
1110,
02,
1001001000002000,
1110,
2220,
32,
1222,
2222,
1444,
4022,
1022,
1022,
1011,
2022,
#SCROLL 8
#MEASURE 2/4
0608,
#SCROLL 1
#MEASURE 4/4
1202,
01011010,
10200200,
20020020,
07000080,
2012,
01011001,
0111,
#MEASURE 1/4
,
#MEASURE 4/4
1110,
#MEASURE 3/4
102011,
#MEASURE 4/4
0112,
#MEASURE 3/4
110,
#MEASURE 4/4
1111,
#MEASURE 3/4
110011,
#MEASURE 4/4
01100110,
100007000000,
,
#MEASURE 2/4
8,
#MEASURE 4/4
1001001000002000,
#MEASURE 3/4
110,
440,
#MEASURE 4/4
10010010,
1000100010010010,
#MEASURE 3/4
021,
#MEASURE 5/4
0100201010,
#MEASURE 1/16
#BARLINEOFF
5,
#SCROLL 1.2
,
#SCROLL 1.3
,
#SCROLL 1.4
,
#SCROLL 1.5
,
#SCROLL 1.6
,
#SCROLL 1.7
,
#SCROLL 1.8
,
#BPMCHANGE 240
#SCROLL 1.3
,
#SCROLL 1.4
,
#SCROLL 1.5
,
#SCROLL 1.6
,
#SCROLL 1.7
,
#SCROLL 1.8
8,
#BPMCHANGE 160
#MEASURE 1/4
#SCROLL 1
,
#MEASURE 3/4
#BARLINEON
,
#MEASURE 2/4
44,
#MEASURE 4/4
#GOGOSTART
2002002000002000,
,
2002002000002000,
0000000010010010,
2002002000002000,
,
2002002000002000,
1114,
1001001000002000,
1212,
1001001000002000,
10101110,
1001001000002000,
1212,
#GOGOEND
1001001000001000,
,
#GOGOSTART
1001001000001000,
4
#GOGOEND
300,
#END