This commit is contained in:
2026-03-04 23:59:27 +09:00
parent 6e0312f5b4
commit 4b4e2b8c98
1128 changed files with 668765 additions and 0 deletions

570
tja/943.tja Normal file
View File

@@ -0,0 +1,570 @@
//TJADB Project
TITLE:Clapolpolska
TITLEJA:クラポルポルスカ
SUBTITLE:--Katsuro Tajima -Clarinet Polska Rendition-
BPM:130
WAVE:Clapolpolska.ogg
OFFSET:-2.765
DEMOSTART:32.890
COURSE:Oni
LEVEL:10
BALLOON:8,3,3,3,3,3,3,10,10,10
SCOREINIT:480
SCOREDIFF:113
#START
1220122010101022,
100000200200100000200200100200200200100000202020,
1220122010101022,
1022102212221022,
1220122010101022,
100000200200102020200200100200200200100000202020,
100200200000100200200000100000100000102020200200,
1022122110201000,
#MEASURE 6/4
300020021010201012201020,
#MEASURE 4/4
3001202110012012,
1001201102221222,
1002100210021021,
7000000802212221,
2001200120012021,
#BARLINEOFF
#MEASURE 2/4
1
#BPMCHANGE 120
0,
#BARLINEON
#BPMCHANGE 50
70080000700800
#SCROLL 2.8
12,
#GOGOSTART
#MEASURE 4/4
#BPMCHANGE 140
#SCROLL 1
1222122210101022,
100000200200100000200200100200200100200000202020,
1222122210101022,
1022102212212022,
1222122210101022,
100200200100200200100200200100000200100000202020,
1222122210101022,
1022122110201000,
#GOGOEND
#BPMCHANGE 110
,
102020200200100200200000100200200100200000000000,
1221221221221220,
102020200200100200200000100200200100200000000000,
1221221220102000,
#MEASURE 2/4
#BPMCHANGE 66
7878,
#GOGOSTART
#MEASURE 4/4
#BPMCHANGE 150
102020200200100200100100200000101010200000000000,
1221221221221220,
102020200200100200100100200000101010200000000000,
1221221220021000,
#GOGOEND
#MEASURE 2/4
#BPMCHANGE 73
70008000700080
#SCROLL 2.05
12,
#GOGOSTART
#MEASURE 4/4
#BPMCHANGE 150
#SCROLL 1
1112111210101022,
1012122212112211,
2211211211211211,
2002212020102102,
200010100000200010100000200010100200100010200100,
100010200100100010200100200200100200200200100000,
202020101010202020101010202020101010200200100100,
2211221220021000,
#GOGOEND
5000000000801222,
50000811,
1122112211221122,
1222122101112020,
5000000000801222,
5000000000801121,
2211221122112211,
2012111202021122,
#BARLINEOFF
#MEASURE 2/4
7008,
#GOGOSTART
#BARLINEON
#MEASURE 4/4
100000000100200000200200000200000200102020102020,
7000000000801210,
202020200100202020200100202020200100202020200100,
202020100100202020100100100000000100200000200000,
1001202202021221,
7000000000802120,
101010100200100200200200101010100200100200200200,
1001222120112001,
2001221210012002,
2001222120012002,
1010221210012002,
1122112212212221,
#MEASURE 2/4
#BARLINEOFF
01221221,
#MEASURE 4/4
#BARLINEON
20001120001120001120001120201020,
#GOGOEND
#END
COURSE:Hard
LEVEL:7
BALLOON:15,15,11,9,9,9,7,10,10,15
SCOREINIT:670
SCOREDIFF:163
#START
10101110,
1000100011101000,
20202220,
2000200022202000,
10101110,
1000100011101000,
20202220,
22221120,
7,
#BARLINEOFF
#MEASURE 2/4
8,
#BARLINEON
#MEASURE 4/4
3001101010011000,
2002202020022000,
1001100110011011,
1,
2002200220022022,
#BARLINEOFF
#MEASURE 1/4
2,
#BPMCHANGE 120
,
#BARLINEON
#BPMCHANGE 50
#MEASURE 7/16
700000000000000080000,
#BARLINEOFF
#SCROLL 2.8
#MEASURE 1/32
,
,
#BARLINEON
#GOGOSTART
#BPMCHANGE 140
#SCROLL 1
#MEASURE 4/4
10101110,
1000100011101000,
20202220,
2000200022202000,
10101110,
1000100011011000,
20202220,
22221120,
#GOGOEND
#BPMCHANGE 110
,
10201120,
1110111010101000,
10201120,
2220222020101000,
#BPMCHANGE 66
#MEASURE 2/4
7008,
#GOGOSTART
#BPMCHANGE 150
#MEASURE 4/4
10201120,
1110111010101000,
10201120,
2220222020101000,
#GOGOEND
#BPMCHANGE 73
#MEASURE 7/16
700000000000000000800,
#SCROLL 2.05
#MEASURE 1/32
#BARLINEOFF
,
,
#BARLINEON
#GOGOSTART
#BPMCHANGE 150
#SCROLL 1
#MEASURE 4/4
11201120,
1001101020202000,
11221122,
1001101020202000,
1110111011110110,
7008,
2220222022202022,
2022202220022000,
#GOGOEND
2000002000002220,
7008,
1110222011102220,
1111105000008000,
2000002000002220,
7008,
2220111022201110,
2222205000000000,
#BARLINEOFF
#MEASURE 2/4
08,
#BARLINEON
#GOGOSTART
#MEASURE 4/4
1001101010001111,
7008,
1110222011102220,
1110111010000000,
1001101010002222,
7008,
2220111022201110,
2000222010000000,
2000111020000000,
2000111020022002,
2020222020000000,
1110111022202222,
#MEASURE 2/4
#BARLINEOFF
07000000,
#MEASURE 4/4
#BARLINEON
00000000000000000008000000000030
#GOGOEND
#END
COURSE:Normal
LEVEL:5
BALLOON:11,11,8,7,7,7,7,7,14
SCOREINIT:650
SCOREDIFF:170
#START
10101110,
10101110,
10102220,
10102220,
20202220,
20202220,
20201110,
20201110,
7,
#BARLINEOFF
#MEASURE 2/4
8,
#BARLINEON
#MEASURE 4/4
3202,
1202,
3333,
4,
4444,
#BARLINEOFF
#MEASURE 1/4
3,
#BPMCHANGE 120
,
#BARLINEON
#BPMCHANGE 50
#MEASURE 7/16
700000000000000080000,
#BARLINEOFF
#SCROLL 2.8
#MEASURE 1/32
,
,
#BARLINEON
#GOGOSTART
#BPMCHANGE 140
#SCROLL 1
#MEASURE 4/4
10101110,
10102220,
10101110,
10102220,
20202220,
20201110,
20202220,
22201110,
#GOGOEND
#BPMCHANGE 110
,
10101120,
10101120,
20202210,
20202110,
#BPMCHANGE 66
#MEASURE 2/4
7008,
#GOGOSTART
#BPMCHANGE 150
#MEASURE 4/4
10101120,
11101120,
20202210,
22202110,
#GOGOEND
#BPMCHANGE 73
#MEASURE 7/16
700000000000000000800,
#SCROLL 2.05
#MEASURE 1/32
#BARLINEOFF
,
,
#BARLINEON
#GOGOSTART
#BPMCHANGE 150
#SCROLL 1
#MEASURE 4/4
10101120,
22202210,
10101120,
22202210,
3333,
3340,
4443,
3340,
#GOGOEND
10020011,
7008,
1212,
10050080,
10020022,
7008,
2121,
20050000,
#BARLINEOFF
#MEASURE 2/4
08,
#BARLINEON
#GOGOSTART
#MEASURE 4/4
30400011,
7008,
11201120,
11111000,
30400022,
7008,
22102210,
20221000,
10112000,
20221020,
11112000,
11101122,
#MEASURE 2/4
#BARLINEOFF
09000000,
#MEASURE 4/4
#BARLINEON
0000000900000008,
#GOGOEND
,
,
#END
COURSE:Easy
LEVEL:4
BALLOON:7,7,5,4,6,6,6,6,8
SCOREINIT:500
SCOREDIFF:135
#START
1110,
2220,
1110,
1110,
1110,
2220,
1110,
10101110,
7,
#BARLINEOFF
#MEASURE 2/4
8,
#BARLINEON
#MEASURE 4/4
3,
3,
3333,
3,
4444,
#BARLINEOFF
#MEASURE 1/4
4,
#BPMCHANGE 120
,
#BARLINEON
#BPMCHANGE 50
#MEASURE 7/16
700000000000000080000,
#BARLINEOFF
#SCROLL 2.8
#MEASURE 1/32
,
,
#BARLINEON
#GOGOSTART
#BPMCHANGE 140
#SCROLL 1
#MEASURE 4/4
1110,
10101110,
1110,
20202220,
2220,
10101110,
1110,
20202220,
#GOGOEND
#BPMCHANGE 110
,
1110,
1120,
1110,
1122,
#BPMCHANGE 66
#MEASURE 2/4
7008,
#GOGOSTART
#BPMCHANGE 150
#MEASURE 4/4
1110,
10101110,
1110,
20202220,
#GOGOEND
#BPMCHANGE 73
#MEASURE 7/16
700000000000000000800,
#SCROLL 2.05
#MEASURE 1/32
#BARLINEOFF
,
,
#BARLINEON
#GOGOSTART
#BPMCHANGE 150
#SCROLL 1
#MEASURE 4/4
1110,
10101110,
1110,
20202220,
3333,
3330,
4444,
4440,
#GOGOEND
10010070,
0008,
1212,
1,
20020070,
7008,
1212,
1,
#BARLINEOFF
#MEASURE 2/4
,
#BARLINEON
#GOGOSTART
#MEASURE 4/4
3307,
0008,
1212,
11111000,
3307,
0008,
1212,
10111000,
20222000,
10111020,
1210,
10101111,
#MEASURE 2/4
#BARLINEOFF
09000000,
#MEASURE 4/4
#BARLINEON
0000000900000008,
#GOGOEND
,
,
#END