tja
This commit is contained in:
574
tja/948.tja
Normal file
574
tja/948.tja
Normal file
@@ -0,0 +1,574 @@
|
||||
//TJADB Project
|
||||
TITLE:Kanbu de Tomatte Sugu Tokeru ~Kyouki no Udongein~
|
||||
TITLEJA:患部で止まってすぐ溶ける ~ 狂気の優曇華院
|
||||
SUBTITLE:--ARM (IOSYS) feat. Miko/Touhou Project
|
||||
BPM:200
|
||||
WAVE:Kanbu de Tomatte Sugu Tokeru Kyouki no Udongein.ogg
|
||||
OFFSET:-1.246
|
||||
DEMOSTART:78.039
|
||||
|
||||
COURSE:Oni
|
||||
LEVEL:9
|
||||
BALLOON:15,6,118,2
|
||||
SCOREINIT:380
|
||||
SCOREDIFF:78
|
||||
|
||||
|
||||
#START
|
||||
|
||||
|
||||
2000202022200020,
|
||||
0020202022200000,
|
||||
2000202022200020,
|
||||
0020202022222000,
|
||||
2000202022200020,
|
||||
0020202022200000,
|
||||
2000202022200020,
|
||||
0020202022222000,
|
||||
11221221,
|
||||
12121211,
|
||||
12221221,
|
||||
12121211,
|
||||
11221221,
|
||||
12121211,
|
||||
3344,
|
||||
70000008,
|
||||
1120112011201120,
|
||||
1120112011201120,
|
||||
1212121212121212,
|
||||
1101100022022000,
|
||||
1220122012201220,
|
||||
1220122012201220,
|
||||
1122112211221122,
|
||||
1111100022222000,
|
||||
1120112011201120,
|
||||
1120112011201120,
|
||||
1212121211221122,
|
||||
1101100022022000,
|
||||
1120112212201122,
|
||||
1212112211221212,
|
||||
100100100100100100100100500000000000000008000000,
|
||||
1122112270000080,
|
||||
1210121012101210,
|
||||
1210121010010010,
|
||||
1210121012101210,
|
||||
1211121112111211,
|
||||
10112121,
|
||||
1110201110102000,
|
||||
10112121,
|
||||
1110201122111111,
|
||||
|
||||
#GOGOSTART
|
||||
7,
|
||||
,
|
||||
,
|
||||
,
|
||||
,
|
||||
,
|
||||
,
|
||||
#BPMCHANGE 198.5
|
||||
08,
|
||||
|
||||
#GOGOEND
|
||||
#BPMCHANGE 200
|
||||
10101221,
|
||||
10101221,
|
||||
10101221,
|
||||
10101221,
|
||||
11211121,
|
||||
12121212,
|
||||
1111222211221122,
|
||||
#BPMCHANGE 201.52
|
||||
#SCROLL 0.99
|
||||
500000000000000008000000000000000000000000000000,
|
||||
#BPMCHANGE 200
|
||||
#SCROLL 1
|
||||
10101121,
|
||||
2010102010000002,
|
||||
11211121,
|
||||
0010201010222020,
|
||||
10101121,
|
||||
2010102010000002,
|
||||
1010201010210010,
|
||||
1010101011111110,
|
||||
|
||||
#GOGOSTART
|
||||
1120112011201120,
|
||||
1120112011201120,
|
||||
1011101110101011,
|
||||
100000100100100100100000500000000000000008000000,
|
||||
1220122012201220,
|
||||
1220122012201220,
|
||||
1011101110101011,
|
||||
100100100100100000100000100000500000000008000000,
|
||||
1120112011201120,
|
||||
1120112011201120,
|
||||
1111101111101110,
|
||||
100100100100100000100000500000000000000008000000,
|
||||
1011101110101011,
|
||||
100100100100100000100000100000500000000008000000,
|
||||
2022202220202022,
|
||||
200000200200200200200000500000000000000008000000,
|
||||
1022102011112010,
|
||||
2011102011102012,
|
||||
0210201210102012,
|
||||
0210201212221020,
|
||||
1022102011112010,
|
||||
2011102011102012,
|
||||
0210201211210210,
|
||||
1022102212211010,
|
||||
|
||||
#GOGOEND
|
||||
12121121,
|
||||
2010102010102012,
|
||||
0210201010102012,
|
||||
0210201010222020,
|
||||
12121121,
|
||||
2010102010102012,
|
||||
0210201010210210,
|
||||
1022102211111010,
|
||||
|
||||
#GOGOSTART
|
||||
1022102011112010,
|
||||
2011102011102012,
|
||||
0210201210102012,
|
||||
0210201212221020,
|
||||
1022102011112010,
|
||||
2011102011102012,
|
||||
0210201211210210,
|
||||
1222122212211211,
|
||||
|
||||
#GOGOEND
|
||||
#BPMCHANGE 40
|
||||
#SCROLL 25
|
||||
70000000000000000000000000000008,
|
||||
|
||||
|
||||
#END
|
||||
|
||||
|
||||
COURSE:Hard
|
||||
LEVEL:7
|
||||
BALLOON:9,85,2
|
||||
SCOREINIT:2050
|
||||
SCOREDIFF:0
|
||||
|
||||
|
||||
#START
|
||||
|
||||
|
||||
20202202,
|
||||
02202200,
|
||||
20202202,
|
||||
02202220,
|
||||
20202202,
|
||||
02202200,
|
||||
20202202,
|
||||
02202220,
|
||||
|
||||
10101110,
|
||||
10101110,
|
||||
20202220,
|
||||
20202220,
|
||||
10101110,
|
||||
10101110,
|
||||
3344,
|
||||
70000008,
|
||||
|
||||
1111,
|
||||
1111,
|
||||
11111111,
|
||||
1101100022022000,
|
||||
1111,
|
||||
1111,
|
||||
12121212,
|
||||
1110100022202000,
|
||||
|
||||
1111,
|
||||
1111,
|
||||
11111111,
|
||||
1101100022022000,
|
||||
11221122,
|
||||
11221222,
|
||||
100000200000100000200000500000000000000008000000,
|
||||
1020102022022000,
|
||||
|
||||
11201120,
|
||||
1010200010010010,
|
||||
11201120,
|
||||
11201122,
|
||||
10221010,
|
||||
10210120,
|
||||
10112020,
|
||||
10210120,
|
||||
|
||||
#GOGOSTART
|
||||
9,
|
||||
,
|
||||
,
|
||||
,
|
||||
,
|
||||
,
|
||||
9,
|
||||
8,
|
||||
#GOGOEND
|
||||
|
||||
10100220,
|
||||
10100220,
|
||||
10100220,
|
||||
10100220,
|
||||
1212,
|
||||
12121212,
|
||||
5,
|
||||
000000000000000008000000000000000000000000000000,
|
||||
|
||||
1120,
|
||||
20201001,
|
||||
01101012,
|
||||
02202000,
|
||||
1120,
|
||||
20201001,
|
||||
0010100020020020,
|
||||
1000000011101010,
|
||||
|
||||
#GOGOSTART
|
||||
10102022,
|
||||
11221001,
|
||||
01221122,
|
||||
02112000,
|
||||
10102022,
|
||||
11221001,
|
||||
0010202010010010,
|
||||
500000000000000000000000000000000008000000000000,
|
||||
|
||||
10102022,
|
||||
1110202010000010,
|
||||
01221122,
|
||||
0020111020000000,
|
||||
10102022,
|
||||
1110202010000010,
|
||||
0010202010010010,
|
||||
500000000000000000000000000000000008000000000000,
|
||||
|
||||
10102022,
|
||||
1110202010000010,
|
||||
0010222010102020,
|
||||
0020111020000000,
|
||||
10102022,
|
||||
1110202010000010,
|
||||
0010222010010010,
|
||||
500000000000000000000000000000000008000000000000,
|
||||
#GOGOEND
|
||||
|
||||
1120,
|
||||
20201001,
|
||||
01101012,
|
||||
02202000,
|
||||
1120,
|
||||
20201001,
|
||||
0010100020020020,
|
||||
1000000011101010,
|
||||
|
||||
#GOGOSTART
|
||||
10102022,
|
||||
1110202010000010,
|
||||
0010222010102020,
|
||||
0020111020000000,
|
||||
10102022,
|
||||
1110202010000010,
|
||||
0010222030030030,
|
||||
600000000000000000000000000000000000000008000000,
|
||||
#GOGOEND
|
||||
|
||||
#SCROLL 5
|
||||
#BPMCHANGE 40
|
||||
#MEASURE 6/4
|
||||
700008,
|
||||
|
||||
|
||||
#END
|
||||
|
||||
|
||||
COURSE:Normal
|
||||
LEVEL:4
|
||||
BALLOON:6,55,2
|
||||
SCOREINIT:4320
|
||||
SCOREDIFF:0
|
||||
|
||||
|
||||
#START
|
||||
|
||||
|
||||
,
|
||||
,
|
||||
,
|
||||
,
|
||||
1,
|
||||
,
|
||||
1,
|
||||
,
|
||||
|
||||
11,
|
||||
11,
|
||||
22,
|
||||
22,
|
||||
11,
|
||||
11,
|
||||
3344,
|
||||
70000008,
|
||||
|
||||
11,
|
||||
11,
|
||||
1111,
|
||||
34,
|
||||
11,
|
||||
11,
|
||||
1111,
|
||||
34,
|
||||
|
||||
11,
|
||||
22,
|
||||
1122,
|
||||
34,
|
||||
11,
|
||||
22,
|
||||
1122,
|
||||
34,
|
||||
|
||||
5,
|
||||
000000000000000000000008000000000000000000000000,
|
||||
5,
|
||||
000000000000000000000000000000000008000000000000,
|
||||
11,
|
||||
10010010,
|
||||
11,
|
||||
20020020,
|
||||
|
||||
#GOGOSTART
|
||||
9,
|
||||
,
|
||||
,
|
||||
,
|
||||
,
|
||||
,
|
||||
0009,
|
||||
8,
|
||||
#GOGOEND
|
||||
|
||||
10100200,
|
||||
10100200,
|
||||
10100200,
|
||||
10100200,
|
||||
1111,
|
||||
2222,
|
||||
5,
|
||||
000000000000000008000000000000000000000000000000,
|
||||
|
||||
11,
|
||||
2220,
|
||||
22,
|
||||
1110,
|
||||
11,
|
||||
2220,
|
||||
22,
|
||||
1,
|
||||
|
||||
#GOGOSTART
|
||||
1122,
|
||||
10111000,
|
||||
2211,
|
||||
20222000,
|
||||
1122,
|
||||
10111000,
|
||||
5,
|
||||
000000000000000000000000000000000008000000000000,
|
||||
|
||||
1122,
|
||||
10111000,
|
||||
2211,
|
||||
20222000,
|
||||
1122,
|
||||
10111000,
|
||||
5,
|
||||
000000000000000000000000000000000008000000000000,
|
||||
|
||||
10102022,
|
||||
20111000,
|
||||
20201011,
|
||||
10222000,
|
||||
10102022,
|
||||
20111000,
|
||||
5,
|
||||
000000000000000000000000000000000008000000000000,
|
||||
#GOGOEND
|
||||
|
||||
11,
|
||||
2220,
|
||||
22,
|
||||
1110,
|
||||
11,
|
||||
2220,
|
||||
22,
|
||||
1,
|
||||
|
||||
#GOGOSTART
|
||||
10102022,
|
||||
20111000,
|
||||
20201011,
|
||||
10222000,
|
||||
10102022,
|
||||
20111000,
|
||||
34,
|
||||
600000000000000000000000000000000008000000000000,
|
||||
#GOGOEND
|
||||
|
||||
#SCROLL 5
|
||||
#BPMCHANGE 40
|
||||
#MEASURE 6/4
|
||||
700008,
|
||||
|
||||
|
||||
#END
|
||||
|
||||
|
||||
COURSE:Easy
|
||||
LEVEL:2
|
||||
BALLOON:4,45,2
|
||||
SCOREINIT:6860
|
||||
SCOREDIFF:0
|
||||
|
||||
|
||||
#START
|
||||
|
||||
|
||||
,
|
||||
,
|
||||
,
|
||||
,
|
||||
1,
|
||||
,
|
||||
1,
|
||||
,
|
||||
|
||||
1,
|
||||
1,
|
||||
1,
|
||||
1,
|
||||
11,
|
||||
11,
|
||||
3333,
|
||||
70000008,
|
||||
|
||||
11,
|
||||
11,
|
||||
11,
|
||||
34,
|
||||
11,
|
||||
11,
|
||||
11,
|
||||
34,
|
||||
|
||||
11,
|
||||
11,
|
||||
11,
|
||||
34,
|
||||
11,
|
||||
11,
|
||||
11,
|
||||
34,
|
||||
|
||||
5,
|
||||
000000000000000000000008000000000000000000000000,
|
||||
5,
|
||||
000000000000000000000000000008000000000000000000,
|
||||
11,
|
||||
1,
|
||||
11,
|
||||
2,
|
||||
|
||||
#GOGOSTART
|
||||
9,
|
||||
,
|
||||
,
|
||||
,
|
||||
,
|
||||
,
|
||||
0009,
|
||||
8,
|
||||
#GOGOEND
|
||||
|
||||
1,
|
||||
1,
|
||||
1,
|
||||
1,
|
||||
11,
|
||||
1111,
|
||||
5,
|
||||
000000000000000008000000000000000000000000000000,
|
||||
|
||||
1,
|
||||
1,
|
||||
11,
|
||||
1,
|
||||
1,
|
||||
1,
|
||||
11,
|
||||
2,
|
||||
|
||||
#GOGOSTART
|
||||
11,
|
||||
1110,
|
||||
11,
|
||||
1110,
|
||||
11,
|
||||
1110,
|
||||
5,
|
||||
000000000000000008000000000000000000000000000000,
|
||||
|
||||
11,
|
||||
1110,
|
||||
22,
|
||||
2220,
|
||||
11,
|
||||
1110,
|
||||
5,
|
||||
000000000000000008000000000000000000000000000000,
|
||||
|
||||
11,
|
||||
1110,
|
||||
22,
|
||||
2220,
|
||||
11,
|
||||
1110,
|
||||
5,
|
||||
000000000000000008000000000000000000000000000000,
|
||||
#GOGOEND
|
||||
|
||||
1,
|
||||
1,
|
||||
11,
|
||||
1,
|
||||
1,
|
||||
1,
|
||||
11,
|
||||
2,
|
||||
|
||||
#GOGOSTART
|
||||
11,
|
||||
1110,
|
||||
22,
|
||||
2220,
|
||||
11,
|
||||
1110,
|
||||
34,
|
||||
600000000000000000000000000000000008000000000000,
|
||||
#GOGOEND
|
||||
|
||||
#SCROLL 5
|
||||
#BPMCHANGE 40
|
||||
#MEASURE 6/4
|
||||
700008,
|
||||
|
||||
|
||||
#END
|
||||
|
||||
Reference in New Issue
Block a user