tja
This commit is contained in:
525
tja/952.tja
Normal file
525
tja/952.tja
Normal file
@@ -0,0 +1,525 @@
|
||||
//TJADB Project
|
||||
TITLE:Tetrarhythmosphobia
|
||||
TITLEJA:テトラリュトモスフォビア
|
||||
SUBTITLE:--Mitsuhiro Kitatani feat. Luschka
|
||||
SUBTITLEJA:feat.ルシュカ
|
||||
BPM:150
|
||||
WAVE:Tetrarhythmosphobia.ogg
|
||||
OFFSET:-3.025
|
||||
DEMOSTART:39.316
|
||||
|
||||
COURSE:Oni
|
||||
LEVEL:10
|
||||
BALLOON:24,9,13
|
||||
SCOREINIT:1390
|
||||
SCOREDIFF:0
|
||||
|
||||
|
||||
#START
|
||||
|
||||
|
||||
#MEASURE 13/16
|
||||
1020120010120,
|
||||
#MEASURE 19/16
|
||||
1020110020210211120,
|
||||
|
||||
#MEASURE 13/16
|
||||
3020120210120,
|
||||
#MEASURE 4/4
|
||||
1020110120210120,
|
||||
#MEASURE 13/16
|
||||
1020120210120,
|
||||
#MEASURE 19/16
|
||||
1020110120210211120,
|
||||
|
||||
#MEASURE 13/16
|
||||
3020120211120,
|
||||
#MEASURE 4/4
|
||||
1020110120211120,
|
||||
#MEASURE 13/16
|
||||
1020120211120,
|
||||
#MEASURE 19/16
|
||||
1021121122211122100,
|
||||
#MEASURE 13/16
|
||||
3020120211120,
|
||||
#MEASURE 4/4
|
||||
1020110120211120,
|
||||
#MEASURE 13/16
|
||||
1020120211120,
|
||||
#MEASURE 19/16
|
||||
1021121121122211122,
|
||||
|
||||
#MEASURE 9/8
|
||||
100000000400000000300000000300000000300000201010102020,
|
||||
#MEASURE 5/4
|
||||
100000000000100000100000000000100000100000000000200200200000200000200000100010001000100000100000200010001000100020002000,
|
||||
#MEASURE 9/8
|
||||
100000000400000000300000000300000000300000202020202020,
|
||||
#MEASURE 5/4
|
||||
100000002000100020001000100200101010200010001000100020002000,
|
||||
|
||||
#MEASURE 3/4
|
||||
100000002220202020202020,
|
||||
033344,
|
||||
#MEASURE 6/4
|
||||
300022700000000000000080,
|
||||
101022102022101011211122,
|
||||
|
||||
#GOGOSTART
|
||||
100210402210120120201211,
|
||||
102102210210120120211122,
|
||||
102102210210102110201122,
|
||||
102120300022201010121212,
|
||||
102100302120102110102122,
|
||||
102121102122102110211122,
|
||||
102120301211122101211122,
|
||||
102020101010201010102020102220101010201010102020,
|
||||
#GOGOEND
|
||||
|
||||
,
|
||||
#MEASURE 9/8
|
||||
000000000000000000000000000000000000000000200200202020,
|
||||
#MEASURE 6/4
|
||||
122122122122,
|
||||
100020002000111010101010200020100022100011202010,
|
||||
#MEASURE 6/4
|
||||
000000022100000000000100100100100100,
|
||||
000022100020100010002000102000100020100010101010,
|
||||
#GOGOSTART
|
||||
001010101210101110101210101110101210,
|
||||
500000000000000000000000000000000000000000000000000000000000000000000008,
|
||||
#GOGOEND
|
||||
|
||||
000200000022,
|
||||
2,
|
||||
100000200000100010211122,
|
||||
100000000022100000002220200010001000102010201020,
|
||||
#GOGOSTART
|
||||
100110301010101210121212,
|
||||
102121102122102110211122,
|
||||
102120301211122101211122,
|
||||
102020101010201010102020102220101010201010102020,
|
||||
|
||||
100000000200000002200000002200100100,
|
||||
100000000000000000200000000000000001100000000001100000200001100000000000,
|
||||
300000002220700000000000800000300000300030003000,
|
||||
300210401211203030304040,
|
||||
#GOGOEND
|
||||
#MEASURE 13/16
|
||||
3,
|
||||
|
||||
#GOGOSTART
|
||||
#MEASURE 4/4
|
||||
#GOGOSTART
|
||||
300000000000200000000000100000100000000000100000200000000000100000200010001000100000200200100000,
|
||||
#MEASURE 13/16
|
||||
000000000000400000000000100000200000100010001000200200100000000000400000000000,
|
||||
#MEASURE 19/16
|
||||
000000100000200010001000100020002000100000000000400000000000100000200000100100100000200000100100100000200000200000,
|
||||
#GOGOEND
|
||||
#MEASURE 13/16
|
||||
1,
|
||||
|
||||
#MEASURE 4/4
|
||||
#GOGOSTART
|
||||
30002000101000004000003000112000,
|
||||
#MEASURE 13/16
|
||||
00004000102000201011112000,
|
||||
#MEASURE 23/16
|
||||
0011200010100010201010201010202020101010201010,
|
||||
#MEASURE 15/16
|
||||
122700000080000,
|
||||
#MEASURE 4/4
|
||||
#GOGOEND
|
||||
3,
|
||||
|
||||
|
||||
#END
|
||||
|
||||
|
||||
COURSE:Hard
|
||||
LEVEL:7
|
||||
BALLOON:16,16,23,23,7
|
||||
SCOREINIT:2510
|
||||
SCOREDIFF:0
|
||||
|
||||
|
||||
#START
|
||||
|
||||
|
||||
#MEASURE 13/16
|
||||
1010220010220,
|
||||
#MEASURE 19/16
|
||||
1010220010110220220,
|
||||
|
||||
#MEASURE 13/16
|
||||
3010220010220,
|
||||
#MEASURE 4/4
|
||||
1010220010220220,
|
||||
#MEASURE 13/16
|
||||
1010220010220,
|
||||
#MEASURE 19/16
|
||||
1010220010110220220,
|
||||
|
||||
#MEASURE 13/16
|
||||
3010220010220,
|
||||
#MEASURE 4/4
|
||||
1010220010220220,
|
||||
#MEASURE 13/16
|
||||
1010220010220,
|
||||
#MEASURE 19/16
|
||||
1010220220220220000,
|
||||
#MEASURE 13/16
|
||||
3010220010220,
|
||||
#MEASURE 4/4
|
||||
1010220010220220,
|
||||
#MEASURE 13/16
|
||||
1010220010220,
|
||||
#MEASURE 19/16
|
||||
1010220220110220220,
|
||||
|
||||
#MEASURE 9/8
|
||||
343330,
|
||||
#MEASURE 5/4
|
||||
70008,
|
||||
#MEASURE 9/8
|
||||
343330,
|
||||
#MEASURE 5/4
|
||||
70008,
|
||||
|
||||
#MEASURE 3/4
|
||||
100022202020,
|
||||
033333,
|
||||
#MEASURE 6/4
|
||||
3900,
|
||||
000908,
|
||||
|
||||
#GOGOSTART
|
||||
100000400000100110201010,
|
||||
100100200000100110201010,
|
||||
100100200000100110201010,
|
||||
100300011111,
|
||||
100000400000100110202220,
|
||||
100100200000100110202220,
|
||||
100000400000100110202220,
|
||||
100000300000101110102020,
|
||||
#GOGOEND
|
||||
|
||||
,
|
||||
#MEASURE 9/8
|
||||
,
|
||||
#MEASURE 6/4
|
||||
122100122100,
|
||||
102020100000102202202200,
|
||||
#MEASURE 6/4
|
||||
000300011111,
|
||||
000300101020220202202022,
|
||||
#GOGOSTART
|
||||
011111111111111111,
|
||||
500000000000000000000000000000000000000000000000000000000000000000000008,
|
||||
#GOGOEND
|
||||
|
||||
000200000022,
|
||||
2,
|
||||
100200101011,
|
||||
100300011111,
|
||||
#GOGOSTART
|
||||
100000400000101110102020,
|
||||
100100200000100110202220,
|
||||
100000400000100110202220,
|
||||
100100200000101110102020,
|
||||
|
||||
100200200211,
|
||||
100200301210,
|
||||
3900,
|
||||
000908,
|
||||
#GOGOEND
|
||||
#MEASURE 13/16
|
||||
3,
|
||||
|
||||
#GOGOSTART
|
||||
#MEASURE 4/4
|
||||
#GOGOSTART
|
||||
1010220010220220,
|
||||
#MEASURE 13/16
|
||||
0010220010220,
|
||||
#MEASURE 19/16
|
||||
0010220010110220220,
|
||||
#GOGOEND
|
||||
#MEASURE 13/16
|
||||
3,
|
||||
|
||||
#MEASURE 4/4
|
||||
#GOGOSTART
|
||||
1010220010220220,
|
||||
#MEASURE 13/16
|
||||
0010220110220,
|
||||
#MEASURE 23/16
|
||||
00102201102201102201102,
|
||||
#MEASURE 15/16
|
||||
201700000080000,
|
||||
#MEASURE 4/4
|
||||
#GOGOEND
|
||||
3,
|
||||
|
||||
|
||||
#END
|
||||
|
||||
|
||||
COURSE:Normal
|
||||
LEVEL:5
|
||||
BALLOON:9,9,13,10,12,30,13,4
|
||||
SCOREINIT:4540
|
||||
SCOREDIFF:0
|
||||
|
||||
|
||||
#START
|
||||
|
||||
|
||||
#MEASURE 13/16
|
||||
0020020020000,
|
||||
#MEASURE 19/16
|
||||
0020020020020020000,
|
||||
|
||||
#MEASURE 13/16
|
||||
0010010020000,
|
||||
#MEASURE 4/4
|
||||
0010010020020000,
|
||||
#MEASURE 13/16
|
||||
0010010020000,
|
||||
#MEASURE 19/16
|
||||
0010010020020020000,
|
||||
|
||||
#MEASURE 13/16
|
||||
0010010010010,
|
||||
#MEASURE 4/4
|
||||
0020020020020020,
|
||||
#MEASURE 13/16
|
||||
0010010010010,
|
||||
#MEASURE 19/16
|
||||
0020020020020020000,
|
||||
#MEASURE 13/16
|
||||
0010010020020,
|
||||
#MEASURE 4/4
|
||||
0010010020020020,
|
||||
#MEASURE 13/16
|
||||
0010010020020,
|
||||
#MEASURE 19/16
|
||||
000000500000000000000000000000000000000000008000000000000,
|
||||
|
||||
#MEASURE 9/8
|
||||
333330,
|
||||
#MEASURE 5/4
|
||||
70008,
|
||||
#MEASURE 9/8
|
||||
333330,
|
||||
#MEASURE 5/4
|
||||
70008,
|
||||
|
||||
#MEASURE 3/4
|
||||
22,
|
||||
011111,
|
||||
#MEASURE 6/4
|
||||
1900,
|
||||
000908,
|
||||
|
||||
#GOGOSTART
|
||||
100400100211,
|
||||
100200100222,
|
||||
100200100211,
|
||||
100300011111,
|
||||
100400100211,
|
||||
100200100222,
|
||||
100200100211,
|
||||
100300111111,
|
||||
#GOGOEND
|
||||
|
||||
,
|
||||
#MEASURE 9/8
|
||||
,
|
||||
#MEASURE 6/4
|
||||
111100111100,
|
||||
111100300300,
|
||||
#MEASURE 6/4
|
||||
0700,
|
||||
87000008,
|
||||
#GOGOSTART
|
||||
070000000000000000,
|
||||
0008,
|
||||
#GOGOEND
|
||||
|
||||
000200000022,
|
||||
2,
|
||||
000200000011,
|
||||
100300011111,
|
||||
#GOGOSTART
|
||||
100400100211,
|
||||
100200100222,
|
||||
100200100211,
|
||||
100200111122,
|
||||
|
||||
100200200211,
|
||||
100200302020,
|
||||
3900,
|
||||
000908,
|
||||
#GOGOEND
|
||||
#MEASURE 13/16
|
||||
3,
|
||||
|
||||
#GOGOSTART
|
||||
#MEASURE 4/4
|
||||
#GOGOSTART
|
||||
0010010010010010,
|
||||
#MEASURE 13/16
|
||||
0020020020020,
|
||||
#MEASURE 19/16
|
||||
000000500000000000000000000000000000000000008000000000000,
|
||||
#GOGOEND
|
||||
#MEASURE 13/16
|
||||
3,
|
||||
|
||||
#MEASURE 4/4
|
||||
#GOGOSTART
|
||||
0010010010010010,
|
||||
#MEASURE 13/16
|
||||
0020020020020,
|
||||
#MEASURE 23/16
|
||||
00300300300300300300300,
|
||||
#MEASURE 15/16
|
||||
300700000080000,
|
||||
#MEASURE 4/4
|
||||
#GOGOEND
|
||||
3,
|
||||
|
||||
|
||||
#END
|
||||
|
||||
|
||||
COURSE:Easy
|
||||
LEVEL:4
|
||||
BALLOON:7,7,11,8,10,24,11,16
|
||||
SCOREINIT:8040
|
||||
SCOREDIFF:0
|
||||
|
||||
|
||||
#START
|
||||
|
||||
|
||||
#MEASURE 13/16
|
||||
,
|
||||
#MEASURE 19/16
|
||||
,
|
||||
|
||||
#MEASURE 13/16
|
||||
0010010010000,
|
||||
#MEASURE 4/4
|
||||
0010010010000000,
|
||||
#MEASURE 13/16
|
||||
0010010010000,
|
||||
#MEASURE 19/16
|
||||
0010010010000000000,
|
||||
|
||||
#MEASURE 13/16
|
||||
0010010010000,
|
||||
#MEASURE 4/4
|
||||
0010010010000000,
|
||||
#MEASURE 13/16
|
||||
0010010010000,
|
||||
#MEASURE 19/16
|
||||
0020020020000000000,
|
||||
#MEASURE 13/16
|
||||
0010010010000,
|
||||
#MEASURE 4/4
|
||||
0010010010000000,
|
||||
#MEASURE 13/16
|
||||
0010010010000,
|
||||
#MEASURE 19/16
|
||||
000000500000000000000000000000000000000000008000000000000,
|
||||
|
||||
#MEASURE 9/8
|
||||
333330,
|
||||
#MEASURE 5/4
|
||||
70008,
|
||||
#MEASURE 9/8
|
||||
333330,
|
||||
#MEASURE 5/4
|
||||
70008,
|
||||
|
||||
#MEASURE 3/4
|
||||
2,
|
||||
,
|
||||
#MEASURE 6/4
|
||||
3900,
|
||||
000908,
|
||||
|
||||
#GOGOSTART
|
||||
100200000011,
|
||||
1210,
|
||||
100200000011,
|
||||
1300,
|
||||
100200000011,
|
||||
1210,
|
||||
100200000011,
|
||||
1300,
|
||||
#GOGOEND
|
||||
|
||||
,
|
||||
#MEASURE 9/8
|
||||
,
|
||||
#MEASURE 6/4
|
||||
11,
|
||||
1033,
|
||||
#MEASURE 6/4
|
||||
0700,
|
||||
87000008,
|
||||
#GOGOSTART
|
||||
070000000000000000,
|
||||
0008,
|
||||
#GOGOEND
|
||||
|
||||
000200000022,
|
||||
2,
|
||||
000200000011,
|
||||
1300,
|
||||
#GOGOSTART
|
||||
100200100011,
|
||||
1210,
|
||||
100200100011,
|
||||
1212,
|
||||
|
||||
100000000011,
|
||||
13,
|
||||
3900,
|
||||
000908,
|
||||
#GOGOEND
|
||||
#MEASURE 13/16
|
||||
3,
|
||||
|
||||
#GOGOSTART
|
||||
#MEASURE 4/4
|
||||
#GOGOSTART
|
||||
0010010010000000,
|
||||
#MEASURE 13/16
|
||||
0020020020000,
|
||||
#MEASURE 19/16
|
||||
000000500000000000000000000000000000000000008000000000000,
|
||||
#GOGOEND
|
||||
#MEASURE 13/16
|
||||
3,
|
||||
|
||||
#MEASURE 4/4
|
||||
#GOGOSTART
|
||||
0010010010000000,
|
||||
#MEASURE 13/16
|
||||
0020020020000,
|
||||
#MEASURE 23/16
|
||||
00700000000000000000000,
|
||||
#MEASURE 15/16
|
||||
000000000080000,
|
||||
#MEASURE 4/4
|
||||
#GOGOEND
|
||||
3,
|
||||
|
||||
|
||||
#END
|
||||
|
||||
Reference in New Issue
Block a user