tja
This commit is contained in:
601
tja/961.tja
Normal file
601
tja/961.tja
Normal file
@@ -0,0 +1,601 @@
|
||||
//TJADB Project
|
||||
TITLE:Stick Trick ShowTime‼
|
||||
TITLEJA:Stick Trick ShowTime!!
|
||||
SUBTITLE:--MisomyL
|
||||
BPM:173
|
||||
WAVE:Stick Trick ShowTime!!.ogg
|
||||
OFFSET:-2.205
|
||||
DEMOSTART:38.960
|
||||
|
||||
COURSE:Oni
|
||||
LEVEL:10
|
||||
BALLOON:9,6,10,10
|
||||
SCOREINIT:420
|
||||
SCOREDIFF:90
|
||||
|
||||
|
||||
#START
|
||||
|
||||
|
||||
#MEASURE 2/4
|
||||
#BARLINEOFF
|
||||
22222222,
|
||||
|
||||
#GOGOSTART
|
||||
#MEASURE 4/4
|
||||
#BARLINEON
|
||||
1012011010120110,
|
||||
1021222212210212,
|
||||
1012011010120110,
|
||||
1221020212022112,
|
||||
1022122212021020,
|
||||
2212212212211020,
|
||||
#GOGOEND
|
||||
2021010122221111,
|
||||
#GOGOSTART
|
||||
222222300000,
|
||||
#GOGOEND
|
||||
|
||||
1112202212210111,
|
||||
2020201202020210,
|
||||
1122212221221222,
|
||||
1101011110102222,
|
||||
1222102212210111,
|
||||
2020212202021221,
|
||||
200100100200100100100200202020200200100100100100,
|
||||
1102020304040222,
|
||||
|
||||
1021021021020202,
|
||||
#SCROLL 1.5
|
||||
1022222222222222,
|
||||
#SCROLL 1
|
||||
1021021021020202,
|
||||
#SCROLL 1.5
|
||||
1222700000000080,
|
||||
#SCROLL 1.3
|
||||
100020111020100020102220,
|
||||
101010202020700000000800,
|
||||
#SCROLL 1
|
||||
1022020222120202,
|
||||
1012012011112220,
|
||||
|
||||
3003003003003030,
|
||||
#BARLINEOFF
|
||||
00
|
||||
#SCROLL 1.5
|
||||
700008,
|
||||
|
||||
#SCROLL 1
|
||||
#BARLINEON
|
||||
#GOGOSTART
|
||||
1222121212020111,
|
||||
2020201202211010,
|
||||
1111221201112220,
|
||||
3003003003004021,
|
||||
2112021120211210,
|
||||
300000000300000000300000000300000000202020100100,
|
||||
2112112212212212,
|
||||
500000000008000200200200200000200000200000200000,
|
||||
#GOGOEND
|
||||
|
||||
2000200020020020,
|
||||
2000200020020020,
|
||||
2000201022121121,
|
||||
2210201011112210,
|
||||
#MEASURE 2/4
|
||||
#SCROLL 1.1
|
||||
30202220,
|
||||
#SCROLL 1.15
|
||||
30202220,
|
||||
#SCROLL 1.2
|
||||
30202220,
|
||||
#SCROLL 1.25
|
||||
30222220,
|
||||
#SCROLL 1.3
|
||||
#MEASURE 4/4
|
||||
333300333300,
|
||||
101110101010101110101010,
|
||||
|
||||
#GOGOSTART
|
||||
201010201020102021201010,
|
||||
101210202010201210202020,
|
||||
201120112011201020101020,
|
||||
102010201000102010102020202020000000
|
||||
#SCROLL 1
|
||||
200100100100,
|
||||
1012112012202121,
|
||||
1021221021121120,
|
||||
2222221222122121,
|
||||
#SCROLL 1.3
|
||||
102010201020102210201020,
|
||||
|
||||
100010102000100022202011,
|
||||
200012201020111010002020,
|
||||
101020101111102011111020,
|
||||
200010002020100010002000100000000000
|
||||
#SCROLL 1
|
||||
100200200200,
|
||||
#GOGOEND
|
||||
1021020212220202,
|
||||
2012022011122120,
|
||||
|
||||
#SCROLL 1.1
|
||||
3003003003002220,
|
||||
#SCROLL 1.15
|
||||
3003003003002210,
|
||||
#SCROLL 1.2
|
||||
3003003003003030,
|
||||
#BARLINEOFF
|
||||
00
|
||||
#SCROLL 1.5
|
||||
700008,
|
||||
#SCROLL 1
|
||||
#BARLINEON
|
||||
2,
|
||||
2000000010010010,
|
||||
#GOGOSTART
|
||||
2222121201112220,
|
||||
300000000300000000300000000300000000101010101010,
|
||||
|
||||
2112021120211210,
|
||||
3003003003002020,
|
||||
2112212122112122,
|
||||
1102020400101010,
|
||||
1221221212212212,
|
||||
1201010300202020,
|
||||
|
||||
2101122212210122,
|
||||
200100000100100200200200101020200100200200100200,
|
||||
2102102102102120,
|
||||
200100000100201010201010200000000200000000200000,
|
||||
#GOGOEND
|
||||
|
||||
1000200020020020,
|
||||
1011211121120202,
|
||||
1011211120120122,
|
||||
2111221112111222,
|
||||
1011210121121022,
|
||||
1221112222221221,
|
||||
1111111121122112,
|
||||
200200100100202020100000300000000300000000300000,
|
||||
|
||||
|
||||
#END
|
||||
|
||||
|
||||
COURSE:Hard
|
||||
LEVEL:8
|
||||
BALLOON:9,8,8,14,8,30,18,9
|
||||
SCOREINIT:2510
|
||||
SCOREDIFF:0
|
||||
|
||||
|
||||
#START
|
||||
|
||||
|
||||
#MEASURE 2/4
|
||||
#BARLINEOFF
|
||||
,
|
||||
|
||||
#GOGOSTART
|
||||
#MEASURE 4/4
|
||||
#BARLINEON
|
||||
1001001010010010,
|
||||
1001001022020020,
|
||||
1001001010010010,
|
||||
1001000020020010,
|
||||
1000100011011020,
|
||||
1000100011011020,
|
||||
#GOGOEND
|
||||
12,
|
||||
#GOGOSTART
|
||||
3330,
|
||||
#GOGOEND
|
||||
|
||||
1000100010220000,
|
||||
2020200202020000,
|
||||
1010100010010010,
|
||||
1101011010102000,
|
||||
1000102010110010,
|
||||
2020200202022020,
|
||||
1001001020020020,
|
||||
0007000000000800,
|
||||
|
||||
1011011011020200,
|
||||
#SCROLL 1.5
|
||||
500000000000000000000000000008000000000000000000,
|
||||
#SCROLL 1
|
||||
1011011011020200,
|
||||
#SCROLL 1.5
|
||||
7008,
|
||||
#SCROLL 1.3
|
||||
100100100101,
|
||||
100202200000,
|
||||
#SCROLL 1
|
||||
1,
|
||||
1002002011102020,
|
||||
|
||||
3003003003003030,
|
||||
00
|
||||
#SCROLL 1.5
|
||||
700008,
|
||||
|
||||
#SCROLL 1
|
||||
#GOGOSTART
|
||||
1011101022020020,
|
||||
1020101101102000,
|
||||
1011101100202220,
|
||||
3003003003004000,
|
||||
1011010110202220,
|
||||
3003003003002000,
|
||||
7,
|
||||
8022,
|
||||
#GOGOEND
|
||||
|
||||
2,
|
||||
22,
|
||||
2000000020020020,
|
||||
4440,
|
||||
#MEASURE 2/4
|
||||
#SCROLL 1.1
|
||||
3,
|
||||
#SCROLL 1.15
|
||||
3,
|
||||
#SCROLL 1.2
|
||||
3,
|
||||
#SCROLL 1.25
|
||||
3,
|
||||
#SCROLL 1.3
|
||||
#MEASURE 4/4
|
||||
333300333300,
|
||||
7008,
|
||||
|
||||
#GOGOSTART
|
||||
100100102200,
|
||||
200100201100,
|
||||
101101101102,
|
||||
500000000000000000000008000000000000000000000000,
|
||||
#SCROLL 1
|
||||
1001102010002220,
|
||||
1001102010201110,
|
||||
1010222010001110,
|
||||
#SCROLL 1.3
|
||||
500000000000000000000008000000000000000000000000,
|
||||
|
||||
112112,
|
||||
112200,
|
||||
112112,
|
||||
122200,
|
||||
#GOGOEND
|
||||
#SCROLL 1
|
||||
1,
|
||||
2000000010002220,
|
||||
|
||||
9,
|
||||
,
|
||||
9,
|
||||
0008,
|
||||
|
||||
2,
|
||||
2000000010010010,
|
||||
#GOGOSTART
|
||||
1011101100202220,
|
||||
3003003003004000,
|
||||
1011010110202220,
|
||||
3003003003002000,
|
||||
7,
|
||||
0008,
|
||||
|
||||
1011011010110110,
|
||||
2202020400002220,
|
||||
|
||||
1011011020001000,
|
||||
1011011020002000,
|
||||
1101101101102220,
|
||||
500000000000000000000008000000000000000000000000,
|
||||
#GOGOEND
|
||||
|
||||
2000200020020020,
|
||||
2000200020020020,
|
||||
2000200020020020,
|
||||
4430,
|
||||
1001102010020020,
|
||||
1001102010220220,
|
||||
7008,
|
||||
2220222030030030,
|
||||
|
||||
|
||||
#END
|
||||
|
||||
|
||||
COURSE:Normal
|
||||
LEVEL:6
|
||||
BALLOON:6,6,6,8,6,22,14,8,8
|
||||
SCOREINIT:4280
|
||||
SCOREDIFF:0
|
||||
|
||||
|
||||
#START
|
||||
|
||||
|
||||
#MEASURE 2/4
|
||||
#BARLINEOFF
|
||||
,
|
||||
|
||||
#GOGOSTART
|
||||
#MEASURE 4/4
|
||||
#BARLINEON
|
||||
1001000010010000,
|
||||
1001000020020000,
|
||||
1001000010010000,
|
||||
1001000020020000,
|
||||
10101012,
|
||||
1000100010010020,
|
||||
#GOGOEND
|
||||
12,
|
||||
#GOGOSTART
|
||||
3330,
|
||||
#GOGOEND
|
||||
|
||||
11,
|
||||
2000200200000000,
|
||||
1000100010010000,
|
||||
30001110,
|
||||
1000100010010010,
|
||||
2000200200002000,
|
||||
1001000020020000,
|
||||
0007000000000800,
|
||||
|
||||
1001001001000000,
|
||||
#SCROLL 1.5
|
||||
500000000000000000000000000008000000000000000000,
|
||||
#SCROLL 1
|
||||
1001001001000000,
|
||||
#SCROLL 1.5
|
||||
7008,
|
||||
#SCROLL 1.3
|
||||
1120,
|
||||
1220,
|
||||
#SCROLL 1
|
||||
1,
|
||||
1022,
|
||||
|
||||
3003003003003030,
|
||||
#BARLINEOFF
|
||||
00
|
||||
#SCROLL 1.5
|
||||
700008,
|
||||
|
||||
#SCROLL 1
|
||||
#BARLINEON
|
||||
#GOGOSTART
|
||||
1000100020020020,
|
||||
1000100100002000,
|
||||
1000100100002000,
|
||||
3003003003004000,
|
||||
1001000010002020,
|
||||
3003003003002000,
|
||||
7,
|
||||
0008,
|
||||
#GOGOEND
|
||||
|
||||
2,
|
||||
,
|
||||
22,
|
||||
4440,
|
||||
#MEASURE 2/4
|
||||
#SCROLL 1.1
|
||||
3,
|
||||
#SCROLL 1.15
|
||||
3,
|
||||
#SCROLL 1.2
|
||||
3,
|
||||
#SCROLL 1.25
|
||||
3,
|
||||
#SCROLL 1.3
|
||||
#MEASURE 4/4
|
||||
33,
|
||||
7008,
|
||||
|
||||
#GOGOSTART
|
||||
1112,
|
||||
1112,
|
||||
1111,
|
||||
500000000000000000000008000000000000000000000000,
|
||||
#SCROLL 1
|
||||
1112,
|
||||
10101220,
|
||||
22202220,
|
||||
#SCROLL 1.3
|
||||
500000000000000000000008000000000000000000000000,
|
||||
|
||||
102102,
|
||||
111100,
|
||||
102102,
|
||||
111100,
|
||||
#GOGOEND
|
||||
#SCROLL 1
|
||||
1,
|
||||
2011,
|
||||
|
||||
9,
|
||||
,
|
||||
9,
|
||||
0008,
|
||||
2,
|
||||
2,
|
||||
#GOGOSTART
|
||||
1000100100002000,
|
||||
3003003003004000,
|
||||
|
||||
1001000010002020,
|
||||
3003003003004000,
|
||||
7,
|
||||
0008,
|
||||
1001002010010020,
|
||||
7008,
|
||||
|
||||
1001002020001000,
|
||||
2002001010002000,
|
||||
1001001001002000,
|
||||
500000000000000000000008000000000000000000000000,
|
||||
#GOGOEND
|
||||
|
||||
22,
|
||||
22,
|
||||
22,
|
||||
4430,
|
||||
1000100020020020,
|
||||
1000100020020020,
|
||||
7008,
|
||||
30306008,
|
||||
|
||||
|
||||
#END
|
||||
|
||||
|
||||
COURSE:Easy
|
||||
LEVEL:5
|
||||
BALLOON:4,4,2,8,4,20,12,5,5
|
||||
SCOREINIT:5740
|
||||
SCOREDIFF:0
|
||||
|
||||
|
||||
#START
|
||||
|
||||
|
||||
#MEASURE 2/4
|
||||
#BARLINEOFF
|
||||
,
|
||||
|
||||
#GOGOSTART
|
||||
#MEASURE 4/4
|
||||
#BARLINEON
|
||||
11,
|
||||
1000000020020000,
|
||||
11,
|
||||
1001000020020000,
|
||||
1112,
|
||||
1120,
|
||||
#GOGOEND
|
||||
1,
|
||||
#GOGOSTART
|
||||
3330,
|
||||
#GOGOEND
|
||||
|
||||
1,
|
||||
2000000200000000,
|
||||
1000000010010000,
|
||||
31,
|
||||
1110,
|
||||
2000200200000000,
|
||||
1001000020020000,
|
||||
0007000000000800,
|
||||
|
||||
10010000,
|
||||
#SCROLL 1.5
|
||||
500000000000000000000000000008000000000000000000,
|
||||
#SCROLL 1
|
||||
10010000,
|
||||
#SCROLL 1.5
|
||||
7008,
|
||||
#SCROLL 1.3
|
||||
1110,
|
||||
2220,
|
||||
#SCROLL 1
|
||||
1,
|
||||
12,
|
||||
|
||||
3003003003003000,
|
||||
#BARLINEOFF
|
||||
00
|
||||
#SCROLL 1.5
|
||||
700008,
|
||||
|
||||
#SCROLL 1
|
||||
#BARLINEON
|
||||
#GOGOSTART
|
||||
1000100010010000,
|
||||
2000200200000000,
|
||||
1000100100002000,
|
||||
3003003000004000,
|
||||
1001000010000000,
|
||||
3003003000002000,
|
||||
7,
|
||||
0008,
|
||||
#GOGOEND
|
||||
|
||||
2,
|
||||
,
|
||||
22,
|
||||
4440,
|
||||
#MEASURE 2/4
|
||||
#SCROLL 1.1
|
||||
3,
|
||||
#SCROLL 1.15
|
||||
3,
|
||||
#SCROLL 1.2
|
||||
3,
|
||||
#SCROLL 1.25
|
||||
3,
|
||||
#SCROLL 1.3
|
||||
#MEASURE 4/4
|
||||
33,
|
||||
7008,
|
||||
|
||||
#GOGOSTART
|
||||
1110,
|
||||
1110,
|
||||
11,
|
||||
500000000000000000000008000000000000000000000000,
|
||||
#SCROLL 1
|
||||
1112,
|
||||
1112,
|
||||
2220,
|
||||
#SCROLL 1.3
|
||||
500000000000000000000008000000000000000000000000,
|
||||
|
||||
11,
|
||||
101100,
|
||||
11,
|
||||
101100,
|
||||
#GOGOEND
|
||||
#SCROLL 1
|
||||
1,
|
||||
21,
|
||||
|
||||
9,
|
||||
,
|
||||
9,
|
||||
0008,
|
||||
2,
|
||||
2,
|
||||
#GOGOSTART
|
||||
1000100100002000,
|
||||
3003003000004000,
|
||||
|
||||
1001000010000000,
|
||||
3003003000004000,
|
||||
7,
|
||||
0008,
|
||||
1001000010010000,
|
||||
7008,
|
||||
|
||||
1001000010000000,
|
||||
2002000020000000,
|
||||
1001001001001000,
|
||||
500000000000000000000008000000000000000000000000,
|
||||
#GOGOEND
|
||||
|
||||
2,
|
||||
2,
|
||||
22,
|
||||
4430,
|
||||
1000100020020000,
|
||||
1000100020020000,
|
||||
7008,
|
||||
30306008,
|
||||
|
||||
|
||||
#END
|
||||
|
||||
Reference in New Issue
Block a user