This commit is contained in:
2026-03-04 23:59:27 +09:00
parent 6e0312f5b4
commit 4b4e2b8c98
1128 changed files with 668765 additions and 0 deletions

860
tja/972.tja Normal file
View File

@@ -0,0 +1,860 @@
//TJADB Project
TITLE:La Paz no Niji
TITLEJA:ラパスの虹
SUBTITLE:--LeNoir
SUBTITLEJA:LeNoir
BPM:156
WAVE:La Paz no Niji.ogg
OFFSET:-1.594
DEMOSTART:72.739
COURSE:Edit
LEVEL:10
BALLOON:12,16,5,2,3,3,15,2
SCOREINIT:380
SCOREDIFF:83
#START
#GOGOSTART
#MEASURE 3/4
300000102020200200100000100200200200,
#MEASURE 5/8
10222010200010200020,
#MEASURE 3/4
102220102220101110102070,
#MEASURE 2/4
0008,
#GOGOEND
#MEASURE 11/8
3,
000000000000000000000000000000000000000000000000
000000000000202020,
200000000000000000000000000000000000000000000000
000000000000100020002000200000100000000000001010
000010000000100000200200200000200000,
#GOGOSTART
100000200100100200000200102020100000200100100200
000200102020200100,
1021011221030112111211,
100200000200101010200000100100100000101020101010
201010100200100100,
1021021222700000000080,
#GOGOEND
#MEASURE 7/8
30220210121200,
10210221002211,
10220210121011,
#MEASURE 3/4
022221011022,
102202101210,
102102210222,
102110221020,
#MEASURE 4/4
102020200100200100000200200100100200101010100000,
#GOGOSTART
#MEASURE 7/8
30212012021210,
10212022122122,
10212012021210,
#MEASURE 3/4
102020102220102020101010,
#MEASURE 7/8
10212012021210,
10212022122122,
10212012021210,
#MEASURE 5/8
102020200100000100201010200000,
102020200100000100200100100200,
1022122122,
#GOGOEND
#MEASURE 3/4
700801210122,
101222101012,
100022201020002010101020,
001010102000100022202020,
122120221201,
100202120202,
100020201022202010200020,
500000000000000000000000000008000000,
#GOGOSTART
111111111,
222222222222,
111111111111111,
222222222222222222,
#MEASURE 5/4
00111100111100222117,
#MEASURE 2/4
08,
#GOGOEND
#MEASURE 4/4
4012021202120121,
000200202020200200100200000200100200000100100000,
400000100200000100200200000020002020101010001000,
2022210122210220,
10100020201011102000201000101010,
000000100100100000100000100000001000000010000000
200000000000200000100000000000200200200000000000,
3021210102102210,
3021210300210302,
#MEASURE 3/4
100020002000200000100000000000001010000010000000
100000200200200000200000,
#GOGOSTART
100300302212,
#MEASURE 5/8
1021201102,
#MEASURE 7/8
100000000300000000300000200200100200101010,
#MEASURE 3/4
101122122120,
300301210121,
#MEASURE 5/8
1221201020,
3003001212,
#MEASURE 7/8
100000000000100010001000100000200000000000400000
000000200200200000100000100000000000,
#MEASURE 3/4
302120302102,
100020201000202020100022,
102222102102,
#MEASURE 5/8
1012017080,
#MEASURE 4/4
3021201202112120,
3021201202210121,
#MEASURE 3/4
100000200100200200100200200100202020,
#GOGOEND
#MEASURE 4/4
100200100100000100202020102010100000200200000000,
#GOGOSTART
#MEASURE 7/8
30121120112220,
100000100200101010200000101010202020200000,
#MEASURE 3/4
101211221120,
101010100200101010200200102010201020,
#MEASURE 7/8
100000100200101010202020100200101010202020,
10120203027080,
#MEASURE 3/4
121202121120,
#MEASURE 5/8
1011211222,
#MEASURE 3/4
100020100020100022202020,
#MEASURE 5/8
1221221222,
#MEASURE 7/8
100000200100200100100200000100101020101010,
#MEASURE 3/4
200000100200000100202020100200000200,
#MEASURE 4/4
100000100200101010200100100100200100101020101010,
20000040000040000022202020100000,
#MEASURE 3/4
300020202010102220102000,
300020201010222010200020,
102220102220101110102070,
#MEASURE 2/4
,
#MEASURE 5/4
80111100111100222117,
0
#GOGOEND
8000,
#END
COURSE:Oni
LEVEL:9
BALLOON:10,14,3,2,2,17,2,5,14,9,7,5,12,3
SCOREINIT:430
SCOREDIFF:93
#START
#GOGOSTART
#MEASURE 3/4
112201122201,
#MEASURE 5/8
1222203030,
#MEASURE 3/4
111122022227,
#MEASURE 2/4
0008,
#GOGOEND
#MEASURE 11/8
3011011201101101120110,
3011011201101101120110,
3011011201101101120110,
#GOGOSTART
3011220221101122022110,
3011220221101122022110,
3011220221101122022110,
3011221122700000000080,
#GOGOEND
#MEASURE 7/8
10010010000000,
4000111,
10000010000022,
#MEASURE 3/4
022000000011,
100011000022,
200220020011,
100022111102,
#MEASURE 4/4
2,
#GOGOSTART
#MEASURE 7/8
30022010002020,
10222000303030,
11220221102220,
#MEASURE 3/4
111111222222,
#MEASURE 7/8
100000100100200000101010100000100100200000,
30112220112220,
30112210112210,
#MEASURE 5/8
3011022110,
3011022110,
3011221110,
#GOGOEND
#MEASURE 3/4
6,
000000000000000000000000000008000000,
101120112220,
111111201010,
100000111100111100,
200110222201,
101122112022,
200000000200000000002020200000000000,
#GOGOSTART
100010001000100010001000500008000000,
100100100100100100100100500008000000,
#MEASURE 2/4
1111111111,
#BARLINEOFF
#MEASURE 1/4
500008000000,
#BARLINEON
#MEASURE 3/4
101010101010101010101010500000000008,
#MEASURE 5/4
00111100111100222700,
#MEASURE 2/4
08,
#GOGOEND
#MEASURE 4/4
3002020102210225,
000000008000000100100100000200200700000000800000,
300000000200000200000100000020002000100010002000,
2011201120270080,
3003022220110000,
3003022220110000,
1111220300302210,
1111220300300700,
#MEASURE 3/4
000000000080,
#GOGOSTART
300400300111,
#MEASURE 5/8
1022011010,
#MEASURE 7/8
30222211110022,
#MEASURE 3/4
111102020110,
302211102011,
#MEASURE 5/8
1020111020,
3020201111,
#MEASURE 7/8
500000000000000000000008000200200100100000,
#MEASURE 3/4
112201122201,
122220307080,
111122101101,
#MEASURE 5/8
70812,
#MEASURE 4/4
3000203000112010,
1010201102210112,
#MEASURE 3/4
201122112211,
#GOGOEND
#MEASURE 4/4
7000000000802200,
#GOGOSTART
#MEASURE 7/8
30220220101100,
100000200200000200200000100000101010100000,
#MEASURE 3/4
102202201011,
110700000080,
#MEASURE 7/8
100000200200000200200000100000101010100000,
10220207000080,
#MEASURE 3/4
112201122201,
#MEASURE 5/8
1222203030,
#MEASURE 3/4
111122101101,
#MEASURE 5/8
1112211010,
#MEASURE 7/8
100100100100200200100000100000101010100000,
#MEASURE 3/4
102202700080,
#MEASURE 4/4
100100222200100100222200,
3003004002222100,
#MEASURE 3/4
300111122220,
300111122220,
111122022227,
#MEASURE 2/4
,
#MEASURE 5/4
80111100111100222700,
0
#GOGOEND
8000,
#END
COURSE:Hard
LEVEL:8
BALLOON:17,18,6,14,13,12,18,34,9,11,8,19,6
SCOREINIT:570
SCOREDIFF:140
#START
#GOGOSTART
#MEASURE 3/4
101100101100,
#MEASURE 5/8
1022203030,
#MEASURE 3/4
7,
#MEASURE 2/4
0008,
#GOGOEND
#MEASURE 11/8
3022022000102202200000,
3022022000102202200000,
3022022000102202200000,
#GOGOSTART
3022022020102202202000,
3022022020102202202000,
1022022020102202202000,
70000000008,
#GOGOEND
#MEASURE 7/8
10010010000000,
4000111,
10000010000022,
#MEASURE 3/4
022000000010,
100022000010,
100220000000,
101110,
#MEASURE 4/4
4,
#GOGOSTART
#MEASURE 7/8
30020010002020,
1000333,
10020010002020,
#MEASURE 3/4
500000000000000000000008000000000000,
#MEASURE 7/8
10020010002020,
10020010000000,
30020010002020,
#MEASURE 5/8
3003002020,
3003002020,
1011102220,
#GOGOEND
#MEASURE 3/4
6,
000000000000000000000000000008000000,
101010222000,
101010222000,
101010222020,
100010222000,
101110202020,
4,
#GOGOSTART
100000000000100000000000500008000000,
100000000000100000000000500008000000,
300000000000300000000000600008000000,
300000000000300000000000600000000008,
#MEASURE 5/4
00111100111100700000,
#MEASURE 2/4
08,
#GOGOEND
#MEASURE 4/4
3002020101110107,
00000008,
300000000200000200000100000010001000100010001000,
70000008,
3003000040040000,
3003000040040000,
1010100300300000,
1010100300300700,
#MEASURE 3/4
008,
#GOGOSTART
3430,
#MEASURE 5/8
3022011000,
#MEASURE 7/8
3221001,
#MEASURE 3/4
600000000000000000000000000008000000,
302220102020,
#MEASURE 5/8
12210,
3020201110,
#MEASURE 7/8
500000000000000000000008000000000000000000,
#MEASURE 3/4
101100101100,
102220303000,
7,
#MEASURE 5/8
00008,
#MEASURE 4/4
7,
,
#MEASURE 3/4
,
#GOGOEND
#MEASURE 4/4
8000000000002200,
#GOGOSTART
#MEASURE 7/8
30220220102000,
10220220102000,
#MEASURE 3/4
102202201020,
700008,
#MEASURE 7/8
10220220102000,
7000008,
#MEASURE 3/4
101100101100,
#MEASURE 5/8
1022203030,
#MEASURE 3/4
101100101100,
#MEASURE 5/8
1022203030,
#MEASURE 7/8
10220010220220,
#MEASURE 3/4
700008,
#MEASURE 4/4
1010222010102220,
3003004000000000,
#MEASURE 3/4
301110202220,
301110202220,
7,
#MEASURE 2/4
,
#MEASURE 5/4
80111100111100700000,
0
#GOGOEND
8000,
#END
COURSE:Normal
LEVEL:7
BALLOON:9,10,4,7,6,6,10,14,4,5,4,10,4
SCOREINIT:880
SCOREDIFF:220
#START
#GOGOSTART
#MEASURE 3/4
1111,
#MEASURE 5/8
10030,
#MEASURE 3/4
7,
#MEASURE 2/4
0008,
#GOGOEND
#MEASURE 11/8
1001000000100100000000,
1001000000100100000000,
1001000000100100000000,
#GOGOSTART
1001000000100100002000,
1001000000100100002000,
1001000000100100002000,
70000000008,
#GOGOEND
#MEASURE 7/8
10010010000000,
4,
1001002,
#MEASURE 3/4
,
120,
1,
101110,
#MEASURE 4/4
4,
#GOGOSTART
#MEASURE 7/8
10010010000000,
2,
10010010000000,
#MEASURE 3/4
500000000000000000000008000000000000,
#MEASURE 7/8
10010010000000,
2,
10010010000000,
#MEASURE 5/8
3,
3,
3,
#GOGOEND
#MEASURE 3/4
6,
000000000000000000000000000008000000,
222,
2,
11,
2,
222,
4,
#GOGOSTART
111,
111,
333,
333,
#MEASURE 5/4
0300300700,
#MEASURE 2/4
08,
#GOGOEND
#MEASURE 4/4
1001000200200007,
00000008,
1001000200200000,
70000008,
3003000040040000,
3003000040040000,
1010100300300000,
1010100300300700,
#MEASURE 3/4
008,
#GOGOSTART
3330,
#MEASURE 5/8
4004004000,
#MEASURE 7/8
30030030000000,
#MEASURE 3/4
600000000000000000000000000008000000,
3330,
#MEASURE 5/8
22220,
11110,
#MEASURE 7/8
500000000000000000000008000000000000000000,
#MEASURE 3/4
1111,
13,
7,
#MEASURE 5/8
00008,
#MEASURE 4/4
9,
,
#MEASURE 3/4
9,
#GOGOEND
#MEASURE 4/4
8,
#GOGOSTART
#MEASURE 7/8
10010020202000,
10010020202000,
#MEASURE 3/4
100100202020,
700008,
#MEASURE 7/8
10010020202000,
7000008,
#MEASURE 3/4
1111,
#MEASURE 5/8
10030,
#MEASURE 3/4
1111,
#MEASURE 5/8
10030,
#MEASURE 7/8
10010020202000,
#MEASURE 3/4
700008,
#MEASURE 4/4
11102220,
3003003000000000,
#MEASURE 3/4
111200,
111200,
7,
#MEASURE 2/4
,
#MEASURE 5/4
8300300700,
0
#GOGOEND
8000,
#END
COURSE:Easy
LEVEL:4
BALLOON:9,8,3,3,6,5,5,9,18,3,4,7,3
SCOREINIT:780
SCOREDIFF:190
#START
#GOGOSTART
#MEASURE 3/4
11,
#MEASURE 5/8
3,
#MEASURE 3/4
7,
#MEASURE 2/4
0008,
#GOGOEND
#MEASURE 11/8
1000000000100000000000,
1000000000100000000000,
1000000000100000000000,
#GOGOSTART
1000000000200000000000,
1000000000200000000000,
1000000000200000000000,
70000000008,
#GOGOEND
#MEASURE 7/8
1001000,
4,
1001002,
#MEASURE 3/4
,
1,
1,
22,
#MEASURE 4/4
4,
#GOGOSTART
#MEASURE 7/8
1001000,
4,
1001000,
#MEASURE 3/4
600000000000000000000008000000000000,
#MEASURE 7/8
1001000,
4,
1001000,
#MEASURE 5/8
500000000000000008000000000000,
500000000000000008000000000000,
70080,
#GOGOEND
#MEASURE 3/4
6,
000000000000000000000008000000000000,
2,
2,
11,
1,
2,
4,
#GOGOSTART
1,
1,
3,
3,
#MEASURE 5/4
0300300700,
#MEASURE 2/4
08,
#GOGOEND
#MEASURE 4/4
1000000200000007,
00000008,
1000000200000000,
70000008,
34,
34,
11100000,
1010100000000700,
#MEASURE 3/4
000000000080,
#GOGOSTART
3330,
#MEASURE 5/8
4,
#MEASURE 7/8
30030030000000,
#MEASURE 3/4
600000000000000000000008000000000000,
3330,
#MEASURE 5/8
4,
5,
#MEASURE 7/8
850000000000000000000008000000000000000000,
#MEASURE 3/4
11,
3,
7,
#MEASURE 5/8
00800,
#MEASURE 4/4
7,
,
#MEASURE 3/4
,
#GOGOEND
#MEASURE 4/4
00000800,
#GOGOSTART
#MEASURE 7/8
10010010000000,
10010010000000,
#MEASURE 3/4
1110,
700008,
#MEASURE 7/8
10010010000000,
7000008,
#MEASURE 3/4
11,
#MEASURE 5/8
3,
#MEASURE 3/4
11,
#MEASURE 5/8
3,
#MEASURE 7/8
2002000,
#MEASURE 3/4
1110,
#MEASURE 4/4
11101110,
3003003000000000,
#MEASURE 3/4
12,
12,
7,
#MEASURE 2/4
,
#MEASURE 5/4
8300300700,
0
#GOGOEND
8000,
#END