tja
This commit is contained in:
451
tja/973.tja
Normal file
451
tja/973.tja
Normal file
@@ -0,0 +1,451 @@
|
||||
//TJADB Project
|
||||
TITLE:PONPOKO RHYTHM
|
||||
TITLEJA:PONPOKO RHYTHM
|
||||
SUBTITLE:--Mamyuuka
|
||||
SUBTITLEJA:Mamyukka
|
||||
BPM:170
|
||||
WAVE:PONPOKO RHYTHM.ogg
|
||||
OFFSET:-0.763
|
||||
DEMOSTART:45.363
|
||||
|
||||
COURSE:Oni
|
||||
LEVEL:7
|
||||
SCOREINIT:480
|
||||
SCOREDIFF:125
|
||||
|
||||
|
||||
#START
|
||||
|
||||
|
||||
3,
|
||||
3,
|
||||
33,
|
||||
3,
|
||||
3000202220201020,
|
||||
3000202220201020,
|
||||
3022202030202220,
|
||||
3022202010002020,
|
||||
|
||||
#GOGOSTART
|
||||
02020212,
|
||||
02020212,
|
||||
0022102000221020,
|
||||
0022112030003000,
|
||||
02020212,
|
||||
02020212,
|
||||
0022102000211020,
|
||||
3344,
|
||||
|
||||
#GOGOEND
|
||||
3000201010221020,
|
||||
1022201020221020,
|
||||
1000201010221020,
|
||||
1012201020222000,
|
||||
1000201010221020,
|
||||
1022201020221020,
|
||||
1010221020102210,
|
||||
2212,
|
||||
|
||||
10022020,
|
||||
1000001010222000,
|
||||
1000201010222010,
|
||||
1022102010202000,
|
||||
1000201020112010,
|
||||
1000201020112030,
|
||||
33044403,
|
||||
600000000000000000000008000000400000400000400000,
|
||||
|
||||
#GOGOSTART
|
||||
3000300030002011,
|
||||
1022201110202000,
|
||||
1000201110222011,
|
||||
1022102010221020,
|
||||
1000200010002011,
|
||||
1022201110202000,
|
||||
1000201110222011,
|
||||
1022102010221020,
|
||||
|
||||
#GOGOEND
|
||||
3000300030022010,
|
||||
44033000,
|
||||
|
||||
#GOGOSTART
|
||||
02020212,
|
||||
02020212,
|
||||
0022102000221020,
|
||||
0022112030303030,
|
||||
02020212,
|
||||
02020212,
|
||||
0022102000211020,
|
||||
3344,
|
||||
|
||||
#GOGOEND
|
||||
10022022,
|
||||
10022022,
|
||||
10022022,
|
||||
12221022,
|
||||
1011200010121000,
|
||||
1021100010222030,
|
||||
33044403,
|
||||
600000000000000000000000000000000000000008000000,
|
||||
|
||||
33333444,
|
||||
|
||||
#GOGOSTART
|
||||
3000300030002011,
|
||||
1022201110202000,
|
||||
1000201110122011,
|
||||
1022102010221020,
|
||||
3000200030002011,
|
||||
1022201110202000,
|
||||
1000201110122011,
|
||||
1022102010002020,
|
||||
|
||||
1011201020112010,
|
||||
1022201110202000,
|
||||
1000201110122011,
|
||||
1022102010221020,
|
||||
3000200030002011,
|
||||
1022201110202000,
|
||||
1000201110122011,
|
||||
1022102010002020,
|
||||
|
||||
1000201110122012,
|
||||
1022102010002020,
|
||||
3000300030022010,
|
||||
44033000,
|
||||
|
||||
#GOGOEND
|
||||
|
||||
|
||||
#END
|
||||
|
||||
|
||||
COURSE:Hard
|
||||
LEVEL:6
|
||||
SCOREINIT:530
|
||||
SCOREDIFF:140
|
||||
|
||||
#START
|
||||
3,
|
||||
3,
|
||||
33,
|
||||
3,
|
||||
3,
|
||||
3,
|
||||
33,
|
||||
3,
|
||||
|
||||
#GOGOSTART
|
||||
02020202,
|
||||
02020202,
|
||||
02020202,
|
||||
02023030,
|
||||
02020202,
|
||||
02020202,
|
||||
02020202,
|
||||
3333,
|
||||
|
||||
#GOGOEND
|
||||
20122122,
|
||||
1000201020222000,
|
||||
20122122,
|
||||
1022201020222000,
|
||||
20122122,
|
||||
1000201020222000,
|
||||
21112111,
|
||||
2112,
|
||||
|
||||
10022020,
|
||||
10011220,
|
||||
10022020,
|
||||
10011220,
|
||||
1000202010222000,
|
||||
1000202010222000,
|
||||
33033303,
|
||||
600000000000000000000008000000000000000000000000,
|
||||
|
||||
#GOGOSTART
|
||||
10101021,
|
||||
10211220,
|
||||
10211221,
|
||||
1022202010201020,
|
||||
10201021,
|
||||
1022201010202000,
|
||||
10211221,
|
||||
1022201010002020,
|
||||
|
||||
#GOGOEND
|
||||
3000300030022020,
|
||||
33033000,
|
||||
|
||||
#GOGOSTART
|
||||
02020202,
|
||||
02020202,
|
||||
02020202,
|
||||
02023030,
|
||||
02020202,
|
||||
02020202,
|
||||
02020202,
|
||||
3333,
|
||||
|
||||
#GOGOEND
|
||||
20022022,
|
||||
10022022,
|
||||
10022022,
|
||||
12221022,
|
||||
1212,
|
||||
1210,
|
||||
33033303,
|
||||
600000000000000000000000000000000000000000000008,
|
||||
|
||||
,
|
||||
|
||||
#GOGOSTART
|
||||
10101021,
|
||||
10211220,
|
||||
10211221,
|
||||
1022202010201020,
|
||||
30203021,
|
||||
1022201010202000,
|
||||
10211221,
|
||||
1022201010002020,
|
||||
|
||||
11212121,
|
||||
1022201010202000,
|
||||
1000201010222010,
|
||||
1020201010201020,
|
||||
30203021,
|
||||
1022201010202000,
|
||||
10211221,
|
||||
1022201010002020,
|
||||
|
||||
10211221,
|
||||
1022201010002020,
|
||||
3000300030022020,
|
||||
33033000,
|
||||
|
||||
#GOGOEND
|
||||
,
|
||||
,
|
||||
#END
|
||||
|
||||
COURSE:Normal
|
||||
LEVEL:6
|
||||
BALLOON:13,20
|
||||
SCOREINIT:550
|
||||
SCOREDIFF:150
|
||||
|
||||
#START
|
||||
3,
|
||||
3,
|
||||
33,
|
||||
3,
|
||||
3,
|
||||
3,
|
||||
33,
|
||||
3,
|
||||
|
||||
#GOGOSTART
|
||||
02020202,
|
||||
02020202,
|
||||
02020202,
|
||||
02023030,
|
||||
02020202,
|
||||
02020202,
|
||||
02020202,
|
||||
3333,
|
||||
|
||||
#GOGOEND
|
||||
20022002,
|
||||
2220,
|
||||
10011001,
|
||||
1110,
|
||||
20022220,
|
||||
2220,
|
||||
10011110,
|
||||
1110,
|
||||
|
||||
20022010,
|
||||
10011020,
|
||||
20022010,
|
||||
10011020,
|
||||
20222020,
|
||||
20222020,
|
||||
7,
|
||||
08,
|
||||
|
||||
#GOGOSTART
|
||||
10101011,
|
||||
10111220,
|
||||
10221022,
|
||||
10221020,
|
||||
10001011,
|
||||
10111220,
|
||||
10221022,
|
||||
10112020,
|
||||
|
||||
#GOGOEND
|
||||
3334,
|
||||
33033000,
|
||||
|
||||
#GOGOSTART
|
||||
02020202,
|
||||
02020202,
|
||||
02020202,
|
||||
02023030,
|
||||
02020202,
|
||||
02020202,
|
||||
02020202,
|
||||
3333,
|
||||
|
||||
#GOGOEND
|
||||
20022000,
|
||||
20022000,
|
||||
20022000,
|
||||
2220,
|
||||
2222,
|
||||
2220,
|
||||
9,
|
||||
0009,
|
||||
|
||||
8,
|
||||
|
||||
#GOGOSTART
|
||||
10101011,
|
||||
10111220,
|
||||
10221022,
|
||||
10221020,
|
||||
30003011,
|
||||
10111220,
|
||||
10221022,
|
||||
10112020,
|
||||
|
||||
11102011,
|
||||
10111220,
|
||||
10221022,
|
||||
10221020,
|
||||
30003011,
|
||||
10111220,
|
||||
10221022,
|
||||
10112020,
|
||||
|
||||
10221022,
|
||||
10112020,
|
||||
3334,
|
||||
33033000,
|
||||
|
||||
#GOGOEND
|
||||
,
|
||||
,
|
||||
#END
|
||||
|
||||
COURSE:Easy
|
||||
LEVEL:4
|
||||
BALLOON:16,16,9,16,16,13
|
||||
SCOREINIT:550
|
||||
SCOREDIFF:150
|
||||
|
||||
#START
|
||||
3,
|
||||
3,
|
||||
33,
|
||||
3,
|
||||
3,
|
||||
3,
|
||||
33,
|
||||
3,
|
||||
|
||||
#GOGOSTART
|
||||
07000000,
|
||||
,
|
||||
0008,
|
||||
0033,
|
||||
07000000,
|
||||
,
|
||||
0008,
|
||||
3333,
|
||||
|
||||
#GOGOEND
|
||||
2,
|
||||
2,
|
||||
11,
|
||||
1110,
|
||||
2,
|
||||
2,
|
||||
11,
|
||||
1110,
|
||||
|
||||
22,
|
||||
11,
|
||||
22,
|
||||
11,
|
||||
2220,
|
||||
2220,
|
||||
7,
|
||||
08,
|
||||
|
||||
#GOGOSTART
|
||||
1110,
|
||||
1110,
|
||||
12,
|
||||
1120,
|
||||
11,
|
||||
1110,
|
||||
12,
|
||||
1120,
|
||||
|
||||
#GOGOEND
|
||||
3330,
|
||||
33033000,
|
||||
|
||||
#GOGOSTART
|
||||
07000000,
|
||||
,
|
||||
0008,
|
||||
0033,
|
||||
07000000,
|
||||
,
|
||||
0008,
|
||||
3333,
|
||||
|
||||
#GOGOEND
|
||||
2,
|
||||
2,
|
||||
1,
|
||||
1,
|
||||
22,
|
||||
22,
|
||||
9,
|
||||
0009,
|
||||
|
||||
8,
|
||||
|
||||
#GOGOSTART
|
||||
1110,
|
||||
1110,
|
||||
12,
|
||||
1122,
|
||||
33,
|
||||
1110,
|
||||
12,
|
||||
1120,
|
||||
|
||||
1110,
|
||||
1110,
|
||||
12,
|
||||
1122,
|
||||
33,
|
||||
1110,
|
||||
12,
|
||||
1120,
|
||||
|
||||
12,
|
||||
1120,
|
||||
3330,
|
||||
33033000,
|
||||
|
||||
#GOGOEND
|
||||
,
|
||||
,
|
||||
#END
|
||||
Reference in New Issue
Block a user