tja
This commit is contained in:
347
tja/98.tja
Normal file
347
tja/98.tja
Normal file
@@ -0,0 +1,347 @@
|
||||
//TJADB Project
|
||||
TITLE:O Vreneli
|
||||
TITLEJA:おおブレネリ
|
||||
SUBTITLE:--Kurumi Kobato & Tokyo Jidou Gasshoudan
|
||||
BPM:120
|
||||
WAVE:O Vreneli.ogg
|
||||
OFFSET:-2.291
|
||||
DEMOSTART:0.030
|
||||
|
||||
COURSE:Oni
|
||||
LEVEL:6
|
||||
BALLOON:13,13,33,13
|
||||
SCOREINIT:740
|
||||
SCOREDIFF:180
|
||||
|
||||
|
||||
#START
|
||||
|
||||
|
||||
0000000000000011,
|
||||
#BPMCHANGE 119.15
|
||||
2010200000112010,
|
||||
#BPMCHANGE 120.86
|
||||
2010200000112010,
|
||||
#BPMCHANGE 120
|
||||
2010112020101120,
|
||||
1020102120000010,
|
||||
#BPMCHANGE 119.52
|
||||
2010211020102110,
|
||||
#BPMCHANGE 120
|
||||
1010211020000010,
|
||||
2010211020102110,
|
||||
1010211010404000,
|
||||
#BPMCHANGE 120.49
|
||||
70000800,//10
|
||||
|
||||
#GOGOSTART
|
||||
#BPMCHANGE 120
|
||||
1001201110212020,
|
||||
1001201110202120,
|
||||
1002101020212120,
|
||||
1002101020000000,//14
|
||||
|
||||
#GOGOEND
|
||||
70000800,//15
|
||||
|
||||
#GOGOSTART
|
||||
1001201110212020,
|
||||
1001201110212120,
|
||||
12121212,
|
||||
10343040,//19
|
||||
|
||||
#GOGOEND
|
||||
1010100011201000,
|
||||
1010100022102000,
|
||||
1020102010210000,
|
||||
1020102010210000,
|
||||
2020200011201000,
|
||||
2020200022102000,
|
||||
2010201020120000,
|
||||
2010201020120000,
|
||||
1020102012221020,
|
||||
#BPMCHANGE 118.65
|
||||
300102100000,
|
||||
#BPMCHANGE 120.92
|
||||
2010200000112000,
|
||||
#BPMCHANGE 120.45
|
||||
2010200000112010,
|
||||
#BPMCHANGE 120
|
||||
2010211020102110,
|
||||
#MEASURE 5/4
|
||||
200000100000200000200000500000000000000000000000
|
||||
#BPMCHANGE 119.11
|
||||
000008000000,
|
||||
#MEASURE 4/4
|
||||
#BPMCHANGE 120
|
||||
2010112020101120,
|
||||
2010112020000010,
|
||||
2010211020102110,
|
||||
#BPMCHANGE 120.49
|
||||
2010211010404000,
|
||||
#BPMCHANGE 119.52
|
||||
7,
|
||||
#BPMCHANGE 120.22
|
||||
00000800,//39
|
||||
|
||||
#BPMCHANGE 130
|
||||
#GOGOSTART
|
||||
1001201120212020,
|
||||
1001201110201210,
|
||||
1002101020212020,
|
||||
1001211120000000,//43
|
||||
|
||||
#GOGOEND
|
||||
70000800,//44
|
||||
|
||||
#GOGOSTART
|
||||
1001201120212020,
|
||||
1001201010212210,
|
||||
1144,
|
||||
4333,//48
|
||||
|
||||
#GOGOEND
|
||||
3022201020222020,
|
||||
1000102020022040,
|
||||
3,
|
||||
|
||||
|
||||
#END
|
||||
|
||||
|
||||
COURSE:Hard
|
||||
LEVEL:6
|
||||
BALLOON:11,11,25,11
|
||||
|
||||
#START
|
||||
,
|
||||
12211010,
|
||||
12211010,
|
||||
1212,
|
||||
1010202010222020,
|
||||
1011101010111010,
|
||||
1011101010000000,
|
||||
1011102010111020,
|
||||
1011102010104000,
|
||||
70000800,//10
|
||||
|
||||
#GOGOSTART
|
||||
1002101010000000,
|
||||
2001202020000000,
|
||||
1002101010000000,
|
||||
2001202020000000,//14
|
||||
|
||||
#GOGOEND
|
||||
70000800,//15
|
||||
|
||||
#GOGOSTART
|
||||
1002101010001000,
|
||||
2001202020002000,
|
||||
1122,
|
||||
20333040,//19
|
||||
|
||||
#GOGOEND
|
||||
11102220,
|
||||
11102220,
|
||||
1010101010110000,
|
||||
2020202020220000,
|
||||
11102220,
|
||||
1110100022202000,
|
||||
1010101010220000,
|
||||
2020202020110000,
|
||||
12121212,
|
||||
300101100000,
|
||||
12211210,
|
||||
12211212,
|
||||
1212,
|
||||
#MEASURE 5/4
|
||||
10102020102220202000,
|
||||
#MEASURE 4/4
|
||||
1011201010112010,
|
||||
1011201010000000,
|
||||
1011202010112020,
|
||||
1011202010104000,
|
||||
7,
|
||||
00000800,//39
|
||||
|
||||
#BPMCHANGE 130
|
||||
#GOGOSTART
|
||||
1002101010001010,
|
||||
2001202020002020,
|
||||
1002101010001010,
|
||||
2002102020000000,//43
|
||||
|
||||
#GOGOEND
|
||||
70000800,//44
|
||||
|
||||
#GOGOSTART
|
||||
1002101010001010,
|
||||
2001202020002020,
|
||||
1122,
|
||||
2344,//48
|
||||
|
||||
#GOGOEND
|
||||
4500,
|
||||
000000000000000000000000000008000000000000400000,
|
||||
3,
|
||||
,
|
||||
,
|
||||
#END
|
||||
|
||||
COURSE:Normal
|
||||
LEVEL:4
|
||||
BALLOON:8,8,18,8
|
||||
|
||||
#START
|
||||
,
|
||||
10000110,
|
||||
10000110,
|
||||
1212,
|
||||
1120,
|
||||
10111010,
|
||||
1120,
|
||||
10111010,
|
||||
1120,
|
||||
70000800,//10
|
||||
|
||||
#GOGOSTART
|
||||
10111000,
|
||||
20222000,
|
||||
10111000,
|
||||
20222000,//14
|
||||
|
||||
#GOGOEND
|
||||
70000800,//15
|
||||
|
||||
#GOGOSTART
|
||||
10333000,
|
||||
20444000,
|
||||
1122,
|
||||
20111000,//19
|
||||
|
||||
#GOGOEND
|
||||
11100000,
|
||||
11100000,
|
||||
1110,
|
||||
1110,
|
||||
22200000,
|
||||
22200000,
|
||||
2220,
|
||||
2220,
|
||||
1111,
|
||||
4330,
|
||||
10000110,
|
||||
10000110,
|
||||
1212,
|
||||
#MEASURE 5/4
|
||||
100000000000100000000000500000000000000000000008000000000000,
|
||||
#MEASURE 4/4
|
||||
10111010,
|
||||
1120,
|
||||
10111010,
|
||||
500000000000000008000000000000400000400000000000,
|
||||
7,
|
||||
00000800,//39
|
||||
|
||||
#BPMCHANGE 130
|
||||
#GOGOSTART
|
||||
10111000,
|
||||
20222000,
|
||||
10111000,
|
||||
20122000,//43
|
||||
|
||||
#GOGOEND
|
||||
70000800,//44
|
||||
|
||||
#GOGOSTART
|
||||
10333000,
|
||||
20444000,
|
||||
1122,
|
||||
2122,//48
|
||||
|
||||
#GOGOEND
|
||||
2500,
|
||||
000000000000000000000000000008000000000000300000,
|
||||
3,
|
||||
,
|
||||
,
|
||||
#END
|
||||
|
||||
COURSE:Easy
|
||||
LEVEL:3
|
||||
BALLOON:6,6,13,6
|
||||
|
||||
#START
|
||||
,
|
||||
1,
|
||||
1,
|
||||
11,
|
||||
1110,
|
||||
12,
|
||||
1110,
|
||||
12,
|
||||
1110,
|
||||
70000800,//10
|
||||
|
||||
#GOGOSTART
|
||||
1110,
|
||||
2220,
|
||||
3330,
|
||||
4440,//14
|
||||
|
||||
#GOGOEND
|
||||
70000800,//15
|
||||
|
||||
#GOGOSTART
|
||||
1110,
|
||||
2220,
|
||||
1111,
|
||||
13,//19
|
||||
|
||||
#GOGOEND
|
||||
1200,
|
||||
1200,
|
||||
1210,
|
||||
1210,
|
||||
2100,
|
||||
2100,
|
||||
2120,
|
||||
2120,
|
||||
11,
|
||||
1130,
|
||||
1,
|
||||
1,
|
||||
22,
|
||||
#MEASURE 5/4
|
||||
200000000000200000000000500000000000000008000000000000000000,
|
||||
#MEASURE 4/4
|
||||
12,
|
||||
1120,
|
||||
12,
|
||||
1120,
|
||||
7,
|
||||
00000800,//39
|
||||
|
||||
#BPMCHANGE 130
|
||||
#GOGOSTART
|
||||
1110,
|
||||
2220,
|
||||
3330,
|
||||
4440,//43
|
||||
|
||||
#GOGOEND
|
||||
70000800,//44
|
||||
|
||||
#GOGOSTART
|
||||
1110,
|
||||
2220,
|
||||
1111,
|
||||
1333,//48
|
||||
|
||||
#GOGOEND
|
||||
3500,
|
||||
000000000000000000000008000000000000000000000000,
|
||||
3,
|
||||
,
|
||||
,
|
||||
#END
|
||||
Reference in New Issue
Block a user