tja
This commit is contained in:
366
tja/984.tja
Normal file
366
tja/984.tja
Normal file
@@ -0,0 +1,366 @@
|
||||
//TJADB Project
|
||||
TITLE:Ka! Ka! Ka! Kamizmode!
|
||||
TITLEJA:カ!カ!カ!カミズモード!
|
||||
SUBTITLE:--DJ KAMMY & Beat-tai/Saikyou Kamizmode!
|
||||
SUBTITLEJA:「最響カミズモード!」より
|
||||
BPM:155
|
||||
WAVE:Ka! Ka! Ka! Kamizmode!.ogg
|
||||
OFFSET:-0.335
|
||||
DEMOSTART:59.947
|
||||
|
||||
COURSE:Oni
|
||||
LEVEL:7
|
||||
BALLOON:13
|
||||
SCOREINIT:2220
|
||||
SCOREDIFF:0
|
||||
|
||||
|
||||
#START
|
||||
|
||||
|
||||
500000000000000000000000000000000008000000000000,
|
||||
1111101010102010,
|
||||
1011201010112010,
|
||||
1111101010102010,
|
||||
70000840,
|
||||
|
||||
#GOGOSTART
|
||||
1101101010201050,
|
||||
000000000000000000000008000000200200200000100000,
|
||||
1101101010102050,
|
||||
000000000000000000000000000000000000000008000000,
|
||||
3003004030030040,
|
||||
3003004030004000,
|
||||
|
||||
#GOGOEND
|
||||
1011101110111010,
|
||||
1011101110111010,
|
||||
1011101110111010,
|
||||
11220330,
|
||||
1011101210111020,
|
||||
1011102210111020,
|
||||
1011101210111020,
|
||||
1011102210111020,
|
||||
1011101210111012,
|
||||
1011101210111012,
|
||||
1011102210111022,
|
||||
1011101110111020,
|
||||
3332,
|
||||
33003300,
|
||||
3003003030004000,
|
||||
3003003030004000,
|
||||
1022101010221010,
|
||||
1011101210111020,
|
||||
1022101010221010,
|
||||
1011101210111020,
|
||||
1022102010221020,
|
||||
1011101210111020,
|
||||
1022102010221020,
|
||||
11102020,
|
||||
|
||||
#BPMCHANGE 170
|
||||
1011101010111010,
|
||||
1110111150000000,
|
||||
000000000000000000000000000000000008000000000000,
|
||||
00000004,
|
||||
|
||||
#GOGOSTART
|
||||
0021201020202040,
|
||||
0021201020202040,
|
||||
0021201020202040,
|
||||
0021201020202040,
|
||||
0021202120212010,
|
||||
20202004,
|
||||
0021202120212010,
|
||||
500000000000000008000000400000000000000000400000,
|
||||
|
||||
0021201020202040,
|
||||
0021201020202040,
|
||||
0021201020202040,
|
||||
0021201020202000,
|
||||
2011101110111011,
|
||||
500000000008000000300000000000000000000000000000,
|
||||
|
||||
30030030,
|
||||
0030000011201120,
|
||||
30030030,
|
||||
0030000011211000,
|
||||
3011103011103011,
|
||||
1030121020002000,
|
||||
|
||||
#GOGOEND
|
||||
2,
|
||||
|
||||
|
||||
#END
|
||||
|
||||
|
||||
COURSE:Hard
|
||||
LEVEL:3
|
||||
BALLOON:10,10,6
|
||||
SCOREINIT:3810
|
||||
SCOREDIFF:0
|
||||
|
||||
|
||||
#START
|
||||
|
||||
|
||||
7008,
|
||||
|
||||
10111020,
|
||||
11201120,
|
||||
10111020,
|
||||
7008,
|
||||
|
||||
#GOGOSTART
|
||||
10101005,
|
||||
000000000000000000000008000000000000000000000000,
|
||||
10101005,
|
||||
000000000000000000000000000008000000000000000000,
|
||||
3003003030030030,
|
||||
3003003030004000,
|
||||
|
||||
#GOGOEND
|
||||
10111011,
|
||||
10111010,
|
||||
10111011,
|
||||
11110110,
|
||||
10111011,
|
||||
10111110,
|
||||
10111011,
|
||||
10111110,
|
||||
|
||||
10111110,
|
||||
10111110,
|
||||
10111111,
|
||||
10111111,
|
||||
3332,
|
||||
33003300,
|
||||
3003003030004000,
|
||||
3003003030004000,
|
||||
|
||||
10111010,
|
||||
11111010,
|
||||
10111010,
|
||||
11111010,
|
||||
10111010,
|
||||
11111010,
|
||||
10111010,
|
||||
11102020,
|
||||
|
||||
#BPMCHANGE 170
|
||||
1,
|
||||
10015000,
|
||||
000000000000000000000000000000000008000000000000,
|
||||
00000002,
|
||||
|
||||
#GOGOSTART
|
||||
02202222,
|
||||
02202222,
|
||||
02202222,
|
||||
02202222,
|
||||
02222220,
|
||||
20202002,
|
||||
02222220,
|
||||
500000000000000000000008000000000000000000200000,
|
||||
|
||||
02202222,
|
||||
02202222,
|
||||
02202222,
|
||||
02202220,
|
||||
2121,
|
||||
70080000,
|
||||
|
||||
30030030,
|
||||
03001212,
|
||||
30030030,
|
||||
03001210,
|
||||
30030030,
|
||||
03002020,
|
||||
|
||||
#GOGOEND
|
||||
2,
|
||||
|
||||
|
||||
#END
|
||||
|
||||
|
||||
COURSE:Normal
|
||||
LEVEL:2
|
||||
BALLOON:7,7,4
|
||||
SCOREINIT:7890
|
||||
SCOREDIFF:0
|
||||
|
||||
|
||||
#START
|
||||
|
||||
|
||||
7008,
|
||||
|
||||
11,
|
||||
1210,
|
||||
11,
|
||||
7008,
|
||||
|
||||
#GOGOSTART
|
||||
10101005,
|
||||
000000000000000000000008000000000000000000000000,
|
||||
10101005,
|
||||
000000000000000000000000000008000000000000000000,
|
||||
30033003,
|
||||
30033000,
|
||||
|
||||
#GOGOEND
|
||||
11,
|
||||
1110,
|
||||
1110,
|
||||
1,
|
||||
11,
|
||||
1110,
|
||||
1110,
|
||||
1,
|
||||
|
||||
11,
|
||||
1110,
|
||||
1110,
|
||||
1,
|
||||
3330,
|
||||
,
|
||||
600000000000000000000008000000000000000000000000,
|
||||
600000000000000000000008000000000000000000000000,
|
||||
|
||||
11,
|
||||
1110,
|
||||
11,
|
||||
1110,
|
||||
11,
|
||||
1110,
|
||||
11,
|
||||
1,
|
||||
|
||||
#BPMCHANGE 170
|
||||
1,
|
||||
1050,
|
||||
000000000000000000000000000000000008000000000000,
|
||||
00000002,
|
||||
|
||||
#GOGOSTART
|
||||
00202002,
|
||||
00202002,
|
||||
00202002,
|
||||
00202002,
|
||||
0222,
|
||||
20202002,
|
||||
0222,
|
||||
500000000000000000000008000000000000000000200000,
|
||||
|
||||
00202002,
|
||||
00202002,
|
||||
00202002,
|
||||
0220,
|
||||
22,
|
||||
70080000,
|
||||
|
||||
30030030,
|
||||
03001010,
|
||||
30030030,
|
||||
03001010,
|
||||
30030030,
|
||||
03002020,
|
||||
|
||||
#GOGOEND
|
||||
2,
|
||||
|
||||
|
||||
#END
|
||||
|
||||
|
||||
COURSE:Easy
|
||||
LEVEL:2
|
||||
BALLOON:5,5,2
|
||||
SCOREINIT:11310
|
||||
SCOREDIFF:0
|
||||
|
||||
|
||||
#START
|
||||
|
||||
|
||||
7008,
|
||||
|
||||
11,
|
||||
11,
|
||||
11,
|
||||
7008,
|
||||
|
||||
#GOGOSTART
|
||||
10101005,
|
||||
000000000000000000000008000000000000000000000000,
|
||||
10101005,
|
||||
000000000000000000000000000008000000000000000000,
|
||||
33,
|
||||
33,
|
||||
|
||||
#GOGOEND
|
||||
1,
|
||||
1,
|
||||
11,
|
||||
1,
|
||||
1,
|
||||
1,
|
||||
11,
|
||||
1,
|
||||
|
||||
1,
|
||||
1,
|
||||
11,
|
||||
1,
|
||||
3330,
|
||||
,
|
||||
600000000000000000000008000000000000000000000000,
|
||||
600000000000000000000008000000000000000000000000,
|
||||
|
||||
11,
|
||||
1,
|
||||
11,
|
||||
1,
|
||||
11,
|
||||
1,
|
||||
11,
|
||||
1,
|
||||
|
||||
#BPMCHANGE 170
|
||||
1,
|
||||
1050,
|
||||
000000000000000000000000000000000008000000000000,
|
||||
00000002,
|
||||
|
||||
#GOGOSTART
|
||||
00002002,
|
||||
00002002,
|
||||
00002002,
|
||||
00002002,
|
||||
02,
|
||||
20202002,
|
||||
02,
|
||||
500000000000000000000008000000000000000000200000,
|
||||
|
||||
00002002,
|
||||
00002002,
|
||||
00002002,
|
||||
02,
|
||||
22,
|
||||
70080000,
|
||||
|
||||
30030030,
|
||||
03000000,
|
||||
30030030,
|
||||
03000000,
|
||||
30030030,
|
||||
03002020,
|
||||
|
||||
#GOGOEND
|
||||
2,
|
||||
|
||||
|
||||
#END
|
||||
|
||||
Reference in New Issue
Block a user