This commit is contained in:
2026-03-04 23:59:27 +09:00
parent 6e0312f5b4
commit 4b4e2b8c98
1128 changed files with 668765 additions and 0 deletions

381
tja/991.tja Normal file
View File

@@ -0,0 +1,381 @@
//TJADB Project
TITLE:Kabukimono, Makari-tooru!
TITLEJA:傾奇者、罷り通る!
SUBTITLE:--Kabotya
SUBTITLEJA:かぼちゃ
BPM:145
WAVE:Kabukimono, Makari-tooru!.ogg
OFFSET:-0.026
DEMOSTART:92.285
COURSE:Oni
LEVEL:8
SCOREINIT:1440
SCOREDIFF:0
#START
300000000400000000300000000400000000200200200000,
300000000400000000300000000400000000200200200000,
100000100000100000100000100200100200100200100200,
100000000000000000000000000000000000000000000000,
#GOGOSTART
100000200000100000200100100100200000100100200000,
100000200000100100200100200000200100000200100000,
000000000000100000200100100100200000100100200000,
100000200000100100200100200000200100000200100000,
100200100000100000200100000100200200100200200200,
100000200000100100200100200000200100000200100000,
100000200000100000200100100100200000100100200000,
300000200100000000300000200100000000101010101010,
#GOGOEND
100000000000200000000000200000000000200000000000,
100000000000200000000000200000000000200000000000,
100000000000200000000000100000000000200000000000,
100000000000000000000000000000200000200200200000,
100000000000200000000000200000000000200000000000,
100000000000200000000000200000000000200000000000,
100000000000200000000000100000000000200000000000,
500000000000000000000000000000000008000000000000,
100000200200100000200100100100200000100100200200,
100000200200100000200100100100200000200200200200,
100000200200100000200100100100200000100100200000,
500000000000000000000000000000000008000000000000,
100000200200100000200100100100200000100100200200,
100000200200100000200100100100200000200200200200,
100000200200100000200200100100000100100000200000,
100200200100200200100200200100200200101010101010,
100000200200200000200200200000200200200000200000,
100000200200200000200200100000200000100200000100,
200000200200200000200000200200200000200000200000,
100000200200200000200200100000200000100200000000,
202000000000202000000000200000200200100100200000,
100000200000200000200000100200200200200200200200,
100000200200100000200200100000200200100000200000,
60000000000000000000000000000000000000000000008,
000000000000000000000000200000000000100000000100,
100000100100200000200200100000200200100200200200,
100000000100200200200000100200100200100000100100,
100000100100200000100200200000200000400000000000,
100000000100200000202020100200100000100000000100,
100000100100200000200200100200200200100200200200,
100000200100100000200200100200100200100000000000,
200200200200200200200000400000000000000000000000,
#GOGOSTART
100000200000100100200100000100200000100100200000,
100000200000100100200100000100200000200200202020,
100000200000100100200100000100200000100100200000,
100000200000100100200100000100100200100100100200,
100000200000100100200100000100200200100100200200,
100000200000100100200100000100100200100100202020,
100000200000100100200100000100200200100100200200,
100000200000100100200000100100100100100100101010,
#GOGOEND
200000000000000000000000000000000000000000000000,
200000000000000000000000000000000000000000000000,
200000000000000000000000000000000000000000000000,
200000000000000000000000000000000000000000000000,
#GOGOSTART
100000100100200000100000100100200000100100200000,
100000100100200000100000100100200000100200200200,
100000100100200200100000100100200200100000100100,
200000200000100100200200100100200000200200200200,
100000200200100000200200100000200200100200200200,
100000200200100000200200100000200200100000202020,
100000200200100000200200100100200100100100200200,
100000200000100100200100100100200200100000000000,
100100100100100100100100100100200200100100200200,
100100100100100100100100100100200200100100200200,
100200100200100200100200100200100200100200100200,
100100200200200200100100200200200200101010101010,
#GOGOEND
100000000400000000300000000400000000200200200000,
300000000400000000300000000400000000200200200000,
100000100000100000100000100200100200100200100200,
100000000000000000000000000000000000000000000000,
300000000000000000000000000000000000000000000000,
#END
COURSE:Hard
LEVEL:6
SCOREINIT:2290
SCOREDIFF:0
#START
300000000400000000300000000400000000200000000000,
300000000400000000300000000400000000200000000000,
100000100000100000100000100000100000100000100000,
100000000000000000000000000000000000000000000000,
#GOGOSTART
100000000000100000000000200200200000100000000000,
100000000000100100100000100000000100000000100000,
000000000000100000000000200200200000100000000000,
100000000000100100100000100000000100000000100000,
200200200000200000000000200000200000200200200000,
100000000000100100100000100000000100000000100000,
100000000000200000100000000000200000200200200000,
300000000200000000300000000200000000200200200000,
#GOGOEND
100000000000200000000000200000000000200000000000,
100000000000200000000000200000000000200000000000,
100000000000200000000000100000000000200000000000,
100000000000000000000000000000000000000000000000,
100000000000200000000000200000000000200000000000,
100000000000200000000000200000000000200000000000,
100000000000200000000000100000000000200000000000,
500000000000000000000000000000000080000000000000,
100000000000100000000000200200200000200000000000,
100000000000100000000000100100100000200200200000,
100000000000100000000000100100100000200000000000,
500000000000000000000000000000000080000000000000,
100000000000100000000000200200200000200000000000,
100000000000100000000000100100100000200200200000,
100000000000100000000000100100000100100000100000,
500000000000000000000000000000000080000000000000,
200000000000200000000000200000200000200000000000,
200000000000200000200000100000200000100200000000,
200000000000200000200000200000000000200000000000,
200000000000200000200000100000200000100200000000,
400000000000400000000000200000200000100000000000,
100000000000000000000000200000200000200000200000,
100000100100100000100100100000100100100000100000,
600000000000000000000000000000000000000000000080,
000000000000000000000000200000000000100000000000,
100000100000200000000000100000000000100000000000,
100000000000100000100000200000200000100000000000,
100000100000200000200200200000200000400000000000,
100000000000100000100000200000000000100000000000,
100000100000200000000000200000100000200000000000,
100000000000100000100000200000200000100000000000,
200200200000200200200000400000000000000000000000,
#GOGOSTART
100000200000100000200000100100100000100100100000,
100000200000100000200000100100100000200000000000,
100000200000100000200000100100100000100100100000,
100000200000100000200000100100100000200000000000,
100000200000100100100000100100100000100000200000,
100000200000100100100000100100100000200000000000,
100000200000100100100000100100100000100000200000,
100000200000100000200000200200200000200200200000,
#GOGOEND
200000000000000000000000000000000000000000000000,
200000000000000000000000000000000000000000000000,
200000000000000000000000000000000000000000000000,
200000000000000000000000000000000000000000000000,
#GOGOSTART
100000100100100000100000100000000000100000100000,
100000100100100000100000100000000000100000200000,
100000000000100000200000100000000000100000100000,
100000000000100000100000100100100000100000100000,
100000100100100000100000100000200000100100100000,
100000100100100000100000100000200000100100100000,
100000000000100100100000100000000000100000100000,
100000200000100000200000200200200000200000200000,
100100100000100100100000100100100000200000200000,
100100100000100100100000100100100000200000200000,
100000000000200000200000100000100000200200200000,
100100100000100100100000100100100000100000000000,
#GOGOEND
300000000400000000300000000400000000200000000000,
300000000400000000300000000400000000200000000000,
100000100000100000100000100000100000100000100000,
400000000000000000000000000000000000000000000000,
300000000000000000000000000000000000000000000000,
#END
COURSE:Normal
LEVEL:4
SCOREINIT:4060
SCOREDIFF:0
#START
300000000000000000300000000000000000200000000000,
300000000000000000300000000000000000200000000000,
500000000000000000000000000000000000000000000080,
000000000000000000000000000000000000000000000000,
#GOGOSTART
100000000000200000000000100000000000000000000000,
100000000000100000100000100000000100000000100000,
000000000000200000000000100000000000000000000000,
100000000000100000100000100000000100000000100000,
200000000000200000000000200000200000200000000000,
100000000000100000100000100000000100000000100000,
100000000000200000100000000000100000200000000000,
300000000000000000300000000000000000400000000000,
#GOGOEND
100000000000000000000000200000000000200000000000,
100000000000000000000000200000000000200000000000,
100000000000000000000000100000000000000000000000,
100000000000000000000000000000000000000000000000,
100000000000000000000000200000000000200000000000,
100000000000000000000000200000000000200000000000,
100000000000000000000000100000000000000000000000,
500000000000000000000000000000000080000000000000,
100000000000100000000000200000000000200000000000,
100000000000100000000000100000000000200000000000,
100000000000200000000000100000000000200000000000,
500000000000000000000000000000000080000000000000,
100000000000100000000000200000000000200000000000,
100000000000100000000000100000000000200000000000,
100000000000200000000000100000000000200000000000,
500000000000000000000000000000000080000000000000,
200000000000200000000000200000200000200000000000,
200000000000200000000000200000200000200000000000,
200000000000200000200000200000000000200000000000,
200000000000200000000000200000000000000000000000,
400000000000400000000000200000000000000000000000,
100000000000000000000000100000000000200000000000,
300000000000300000000000300000000000300000000000,
600000000000000000000000000000000000000000000080,
000000000000000000000000000000000000100000000000,
000000000000200000000000100000000000100000000000,
100000000000000000000000200000000000100000000000,
100000000000100000000000000000000000400000000000,
100000000000000000000000200000000000100000000000,
100000000000100000000000000000000000200000000000,
100000000000100000000000200000000000100000000000,
100000000000000000000000400000000000000000000000,
#GOGOSTART
100000000000000000000000100000000000100000000000,
100000000000100000100000100000000000200000000000,
100000100000100000000000100000100000100000000000,
100000000000100000100000100000000000000000000000,
100000000000100000000000100000100000100000000000,
100000000000100000000000100000100000100000000000,
100000100000200000000000100000100000200000000000,
100000100000100000100000100000100000100000100000,
#GOGOEND
200000000000000000000000000000000000000000000000,
200000000000000000000000000000000000000000000000,
200000000000000000000000000000000000000000000000,
200000000000000000000000000000000000000000000000,
#GOGOSTART
100000100000100000000000200000000000000000000000,
100000100000100000000000200000000000200000200000,
100000000000200000200000100000000000200000000000,
300000000000300000000000300000000000000000000000,
100000100000100000000000200000000000200000000000,
100000100000100000000000200000000000200000200000,
100000000000200000200000100000000000200000000000,
100000000000100000000000100000000000200000000000,
100000100000100000000000200000200000200000000000,
100000100000100000000000200000200000200000000000,
300000000000300000000000300000000000300000000000,
600000000000000000000000000000000080000000000000,
#GOGOEND
300000000000000000300000000000000000200000000000,
300000000000000000300000000000000000200000000000,
100000000000100000000000100000000000100000000000,
400000000000000000000000000000000000000000000000,
300000000000000000000000000000000000000000000000,
#END
COURSE:Easy
LEVEL:2
SCOREINIT:7200
SCOREDIFF:0
#START
300000000000000000300000000000000000000000000000,
300000000000000000300000000000000000000000000000,
500000000000000000000000000000000000000000000080,
000000000000000000000000000000000000000000000000,
#GOGOSTART
100000000000000000000000100000000000000000000000,
100000000000100000000000100000000000000000000000,
100000000000000000000000100000000000000000000000,
100000000000100000000000100000000000000000000000,
100000000000000000000000200000000000200000000000,
100000000000000000000000100000000000000000000000,
100000000000000000100000000000000000100000000000,
600000000000000000000000000080000000000000000000,
#GOGOEND
100000000000000000000000000000000000000000000000,
100000000000000000000000000000000000000000000000,
100000000000000000000000100000000000000000000000,
100000000000000000000000000000000000000000000000,
100000000000000000000000000000000000000000000000,
100000000000000000000000000000000000000000000000,
100000000000000000000000100000000000000000000000,
500000000000000000000000000080000000000000000000,
100000000000000000000000100000000000000000000000,
100000000000100000000000100000000000000000000000,
100000000000000000000000100000000000000000000000,
500000000000000000000000000080000000000000000000,
100000000000000000000000100000000000000000000000,
100000000000100000000000100000000000000000000000,
100000000000000000000000100000000000000000000000,
500000000000000000000000000080000000000000000000,
200000000000000000000000200000000000000000000000,
200000000000200000000000200000000000000000000000,
200000000000000000000000200000000000000000000000,
200000000000200000000000200000000000000000000000,
400000000000400000000000000000000000000000000000,
100000000000000000000000100000000000000000000000,
300000000000000000000000300000000000000000000000,
600000000000000000000000000000000000000000000080,
000000000000000000000000000000000000100000000000,
000000000000000000000000100000000000100000000000,
100000000000000000000000000000000000100000000000,
100000000000100000000000000000000000400000000000,
100000000000000000000000000000000000100000000000,
100000000000100000000000000000000000000000000000,
100000000000000000000000000000000000100000000000,
100000000000000000000000400000000000000000000000,
#GOGOSTART
100000000000000000000000100000000000100000000000,
100000000000000000000000100000000000000000000000,
100000000000000000000000100000000000100000000000,
100000000000000000000000100000000000000000000000,
100000000000000000000000100000000000000000000000,
100000000000100000000000100000000000000000000000,
100000000000000000000000100000000000000000000000,
100000000000100000000000100000000000100000000000,
#GOGOEND
200000000000000000000000000000000000000000000000,
200000000000000000000000000000000000000000000000,
200000000000000000000000000000000000000000000000,
200000000000000000000000000000000000000000000000,
#GOGOSTART
100000000000100000000000100000000000000000000000,
100000000000100000000000100000000000000000000000,
100000000000000000000000100000000000000000000000,
300000000000300000000000300000000000000000000000,
100000000000100000000000200000000000000000000000,
100000000000100000000000200000000000000000000000,
100000000000000000000000100000000000000000000000,
100000000000100000000000200000000000000000000000,
500000000000000000000080000000000000000000000000,
500000000000000000000080000000000000000000000000,
300000000000300000000000300000000000300000000000,
600000000000000000000000000080000000000000000000,
#GOGOEND
300000000000000000300000000000000000000000000000,
300000000000000000300000000000000000000000000000,
100000000000100000000000100000000000100000000000,
400000000000000000000000000000000000000000000000,
300000000000000000000000000000000000000000000000,
#END