tja
This commit is contained in:
409
tja/994.tja
Normal file
409
tja/994.tja
Normal file
@@ -0,0 +1,409 @@
|
||||
//TJADB Project
|
||||
TITLE:Parallel Lollipop
|
||||
TITLEJA:パラレルロリポップ
|
||||
SUBTITLE:--Sho Okada -Taiko de Taiko Travel: 2010’s-
|
||||
SUBTITLEJA:太鼓 de タイムトラベル10's / Sho Okada
|
||||
BPM:160
|
||||
WAVE:Parallel Lollipop.ogg
|
||||
OFFSET:-1.617
|
||||
DEMOSTART:66.859
|
||||
|
||||
COURSE:Oni
|
||||
LEVEL:9
|
||||
BALLOON:43
|
||||
SCOREINIT:480
|
||||
SCOREDIFF:120
|
||||
|
||||
|
||||
#START
|
||||
|
||||
|
||||
,
|
||||
,
|
||||
,
|
||||
,
|
||||
02202022,
|
||||
02220220,
|
||||
02202022,
|
||||
000000000000000200222200,
|
||||
1022200010222210,
|
||||
0020102020221020,
|
||||
100000200200200000101010100000200200200200100000,
|
||||
000000202020100000200000200000100000200200200200,
|
||||
1020221010222010,
|
||||
0022102010202222,
|
||||
1020200010222010,
|
||||
1020102220221220,
|
||||
1112010111020120,
|
||||
1012110111010120,
|
||||
1012010111020110,
|
||||
200000100100000200000100100200102020200100100000,
|
||||
100100100200200100000100100100000200101010100000,
|
||||
1122210112021110,
|
||||
1222012120201102,
|
||||
200200100000200200200100000200200200101010200200,
|
||||
|
||||
#GOGOSTART
|
||||
1122210212022110,
|
||||
100000100200100200000200100200000200200100102020,
|
||||
1012120212022110,
|
||||
100000100200100200000200100100201010200100100000,
|
||||
100000100200100200000200100100100200201010100000,
|
||||
2012120211122110,
|
||||
|
||||
#GOGOEND
|
||||
#MEASURE 5/4
|
||||
7,
|
||||
#SCROLL 0.5
|
||||
000000000008000,
|
||||
#SCROLL 0.55
|
||||
10220102201022010220,
|
||||
#SCROLL 0.61
|
||||
10220102201022010220,
|
||||
#SCROLL 0.67
|
||||
10220102201022010220,
|
||||
#SCROLL 0.74
|
||||
10220102201022010220,
|
||||
#MEASURE 4/4
|
||||
#SCROLL 0.82
|
||||
1022110220101201,
|
||||
#SCROLL 0.91
|
||||
0120121212121212,
|
||||
#SCROLL 1.5
|
||||
3,
|
||||
#SCROLL 1
|
||||
,
|
||||
,
|
||||
0000000021012212,
|
||||
12201021,
|
||||
0020102020222022,
|
||||
12201021,
|
||||
000000202020100000200000100000101010200200200000,
|
||||
100000200000200000202020100000100000200200100000,
|
||||
2022102020201220,
|
||||
100200200222100200200100,
|
||||
2212102020102222,
|
||||
100100200000200000101010200000200200200000100200,
|
||||
0122102020100022,
|
||||
200200100000200200200200100000202020200200100200,
|
||||
000200200200100000200200200100202020100100200200,
|
||||
#MEASURE 5/4
|
||||
1,
|
||||
500000000000000000000008000000200200000000100100200000100000,
|
||||
10022120221202212022,
|
||||
12020110201012010212,
|
||||
100200000000000000000000200200500000000000000008000000200200,
|
||||
12010220101201022012,
|
||||
22112211221122112211,
|
||||
22112111211121112222,
|
||||
|
||||
#GOGOSTART
|
||||
10221022102121102122,
|
||||
12021202120212012210,
|
||||
10221022102121102122,
|
||||
12021202120212012210,
|
||||
12212212122220221212,
|
||||
12212212121221221212,
|
||||
100200100200100200100200100200102020100200100200100200102020,
|
||||
|
||||
#GOGOEND
|
||||
1,
|
||||
|
||||
|
||||
#END
|
||||
|
||||
|
||||
COURSE:Hard
|
||||
LEVEL:7
|
||||
BALLOON:33
|
||||
SCOREINIT:680
|
||||
SCOREDIFF:185
|
||||
|
||||
|
||||
#START
|
||||
|
||||
|
||||
,
|
||||
,
|
||||
,
|
||||
,
|
||||
02202022,
|
||||
02220220,
|
||||
02202022,
|
||||
00000022,
|
||||
1000200010222010,
|
||||
02122212,
|
||||
1022200010222010,
|
||||
02122120,
|
||||
10221221,
|
||||
02122022,
|
||||
1000200010222010,
|
||||
0020102220222020,
|
||||
1011010011010010,
|
||||
1011010011010010,
|
||||
2022020022020020,
|
||||
1011010011010010,
|
||||
1011010011010020,
|
||||
1011010011010010,
|
||||
1002011022011000,
|
||||
1020110022201000,
|
||||
#GOGOSTART
|
||||
1011020011010020,
|
||||
1011020011010020,
|
||||
1011020011010020,
|
||||
1011020022020220,
|
||||
1011020011010220,
|
||||
1011020011010220,
|
||||
#GOGOEND
|
||||
#MEASURE 5/4
|
||||
7,
|
||||
#SCROLL 0.5
|
||||
000000000008000,
|
||||
#SCROLL 0.55
|
||||
1111,
|
||||
#SCROLL 0.61
|
||||
1111,
|
||||
#SCROLL 0.67
|
||||
1111,
|
||||
#SCROLL 0.74
|
||||
1111,
|
||||
#MEASURE 4/4
|
||||
#SCROLL 0.82
|
||||
1000001000001001,
|
||||
#SCROLL 0.91
|
||||
00111111,
|
||||
#SCROLL 1.5
|
||||
3,
|
||||
#SCROLL 1
|
||||
0,
|
||||
0,
|
||||
0,
|
||||
12201021,
|
||||
02122210,
|
||||
12201021,
|
||||
02122110,
|
||||
12201021,
|
||||
02122212,
|
||||
12201021,
|
||||
0020102010102220,
|
||||
1000202010222010,
|
||||
02122222,
|
||||
12212212,
|
||||
02122210,
|
||||
#MEASURE 5/4
|
||||
1,
|
||||
500000000000000000000008000000200000000000000100000000100000,
|
||||
1121,
|
||||
10000001002001000010,
|
||||
100000000000000000000000500000000000000000000008000000000000,
|
||||
10000100002000010010,
|
||||
10002220222022202220,
|
||||
22201110111011101110,
|
||||
#GOGOSTART
|
||||
10001000100100100100,
|
||||
10001000100010010010,
|
||||
10001000100100100100,
|
||||
10001000100010010010,
|
||||
10010010101001001010,
|
||||
10010010101001001010,
|
||||
10101010101110101011,
|
||||
#GOGOEND
|
||||
1,
|
||||
,
|
||||
#MEASURE 4/4
|
||||
,
|
||||
#END
|
||||
|
||||
COURSE:1
|
||||
LEVEL:6
|
||||
SCOREINIT:800
|
||||
SCOREDIFF:233
|
||||
BALLOON:22,11,11
|
||||
|
||||
#START
|
||||
0,
|
||||
0,
|
||||
0,
|
||||
0,
|
||||
02202022,
|
||||
02220220,
|
||||
02202022,
|
||||
00000022,
|
||||
10201021,
|
||||
02102220,
|
||||
10201021,
|
||||
02102010,
|
||||
10221021,
|
||||
02102010,
|
||||
10201021,
|
||||
02102220,
|
||||
1001000010010020,
|
||||
1001000010010020,
|
||||
2002000020020020,
|
||||
1001000010010000,
|
||||
1001000010010020,
|
||||
1001000010010020,
|
||||
1001002020001000,
|
||||
12201220,
|
||||
#GOGOSTART
|
||||
1001020010010020,
|
||||
1001020010010020,
|
||||
1001020010010020,
|
||||
1001010020020000,
|
||||
1001020010010020,
|
||||
1001020010010020,
|
||||
#GOGOEND
|
||||
#MEASURE 5/4
|
||||
7,
|
||||
#SCROLL 0.5
|
||||
000000000008000,
|
||||
#SCROLL 0.55
|
||||
1111,
|
||||
#SCROLL 0.61
|
||||
1111,
|
||||
#SCROLL 0.67
|
||||
1111,
|
||||
#SCROLL 0.74
|
||||
1111,
|
||||
#MEASURE 4/4
|
||||
#SCROLL 0.82
|
||||
10010010,
|
||||
#SCROLL 0.91
|
||||
000000000000600000000000000000000000000000000008,
|
||||
#SCROLL 1.5
|
||||
0,
|
||||
#SCROLL 1
|
||||
0,
|
||||
0,
|
||||
0,
|
||||
10201021,
|
||||
02102220,
|
||||
10201021,
|
||||
02102210,
|
||||
10201021,
|
||||
02102220,
|
||||
10201021,
|
||||
02102220,
|
||||
10221021,
|
||||
02102010,
|
||||
10212021,
|
||||
02102210,
|
||||
#MEASURE 5/4
|
||||
1,
|
||||
500000080000,
|
||||
1120,
|
||||
1000020001,
|
||||
100000000000000000000000500000000000000000000008000000000000,
|
||||
12,
|
||||
1020202022,
|
||||
23333,
|
||||
#GOGOSTART
|
||||
10001000100100100000,
|
||||
10001000100010010010,
|
||||
10001000100100100000,
|
||||
10001000100010010010,
|
||||
70008,
|
||||
70008,
|
||||
500000000000000000000000000000000000000000000000000000000008,
|
||||
#GOGOEND
|
||||
,
|
||||
#MEASURE 4/4
|
||||
,
|
||||
#END
|
||||
|
||||
COURSE:0
|
||||
LEVEL:4
|
||||
SCOREINIT:710
|
||||
SCOREDIFF:248
|
||||
BALLOON:16,6,6
|
||||
|
||||
#START
|
||||
0,
|
||||
0,
|
||||
0,
|
||||
0,
|
||||
02002002,
|
||||
00200200,
|
||||
02002002,
|
||||
0,
|
||||
10201001,
|
||||
0110,
|
||||
10201001,
|
||||
0120,
|
||||
10201001,
|
||||
0110,
|
||||
10201001,
|
||||
0220,
|
||||
11,
|
||||
11,
|
||||
22,
|
||||
11,
|
||||
1000000010010000,
|
||||
1000000010010000,
|
||||
11,
|
||||
11,
|
||||
#GOGOSTART
|
||||
1001000010010000,
|
||||
1001000010010000,
|
||||
2002000020020000,
|
||||
1001000010010000,
|
||||
1001000010010000,
|
||||
1001000010010000,
|
||||
#GOGOEND
|
||||
#MEASURE 5/4
|
||||
7,
|
||||
#SCROLL 0.5
|
||||
000000000008000,
|
||||
#SCROLL 0.55
|
||||
11,
|
||||
#SCROLL 0.61
|
||||
11,
|
||||
#SCROLL 0.67
|
||||
11,
|
||||
#SCROLL 0.74
|
||||
11,
|
||||
#MEASURE 4/4
|
||||
#SCROLL 0.82
|
||||
10010010,
|
||||
#SCROLL 0.91
|
||||
000000000000600000000000000000000000000000000008,
|
||||
#SCROLL 1.5
|
||||
0,
|
||||
#SCROLL 1
|
||||
0,
|
||||
0,
|
||||
0,
|
||||
10201001,
|
||||
0110,
|
||||
10201001,
|
||||
0120,
|
||||
10201001,
|
||||
0122,
|
||||
10201001,
|
||||
0111,
|
||||
10201001,
|
||||
0122,
|
||||
10201001,
|
||||
0111,
|
||||
#MEASURE 5/4
|
||||
1,
|
||||
500000080000,
|
||||
12,
|
||||
12,
|
||||
500000000000000000000000000000000000000008000000000000000000,
|
||||
22,
|
||||
1000020020,
|
||||
23333,
|
||||
#GOGOSTART
|
||||
10001000100100000000,
|
||||
11110,
|
||||
10001000100100000000,
|
||||
11110,
|
||||
70008,
|
||||
70008,
|
||||
500000000000000000000000000000000000000000000000000000000008,
|
||||
#GOGOEND
|
||||
,
|
||||
#MEASURE 4/4
|
||||
,
|
||||
#END
|
||||
Reference in New Issue
Block a user