tja
This commit is contained in:
832
tja/999.tja
Normal file
832
tja/999.tja
Normal file
@@ -0,0 +1,832 @@
|
||||
//TJADB Project
|
||||
TITLE:Central Dogma Part.2
|
||||
TITLEJA:Central Dogma Pt.2
|
||||
SUBTITLE:--Daisuke Kurosawa
|
||||
SUBTITLEJA:黒沢ダイスケ
|
||||
BPM:189
|
||||
WAVE:Central Dogma Part 2.ogg
|
||||
OFFSET:-0.070
|
||||
DEMOSTART:16.895
|
||||
|
||||
COURSE:Oni
|
||||
LEVEL:10
|
||||
BALLOON:5
|
||||
SCOREINIT:1020
|
||||
SCOREDIFF:0
|
||||
|
||||
|
||||
#START
|
||||
|
||||
|
||||
#MEASURE 7/8
|
||||
#SCROLL 1.5
|
||||
30001110001000,
|
||||
#SCROLL 1.4
|
||||
30001110001000,
|
||||
#SCROLL 1.3
|
||||
30001210001000,
|
||||
#SCROLL 1.2
|
||||
30001110001000,
|
||||
#SCROLL 1.1
|
||||
30001110001000,
|
||||
#SCROLL 1
|
||||
30001210003030,
|
||||
|
||||
#MEASURE 4/4
|
||||
3000102010001022,
|
||||
100000100200102010102010,
|
||||
1020121011101010,
|
||||
100020001000100020001000100020001000
|
||||
#SCROLL 3
|
||||
600000800000,
|
||||
#SCROLL 1
|
||||
#GOGOSTART
|
||||
1111101010111011,
|
||||
#GOGOEND
|
||||
100100100000100000100000100010001000100010001000,
|
||||
2211101210121012,
|
||||
111211400222,
|
||||
|
||||
#GOGOSTART
|
||||
1112101110112012,
|
||||
#GOGOEND
|
||||
100000100100200000100000200010001000200010001000,
|
||||
1010222110111022,
|
||||
102010102010102010121010,
|
||||
#GOGOSTART
|
||||
1112101110112012,
|
||||
#GOGOEND
|
||||
100000100100200000100000200010001000200010001000,
|
||||
1010222110111022,
|
||||
101020101020101020112020,
|
||||
|
||||
3000111000404040,
|
||||
|
||||
#GOGOSTART
|
||||
1011202010102010,
|
||||
#GOGOEND
|
||||
000000100100200000100200100000100000200020002000,
|
||||
1011201110102210,
|
||||
1122202211104000,
|
||||
#GOGOSTART
|
||||
1011202010102010,
|
||||
#GOGOEND
|
||||
000000100100200000100200200020001000100020002000,
|
||||
1011201122112220,
|
||||
1121101121104022,
|
||||
|
||||
#GOGOSTART
|
||||
1012202010102010,
|
||||
#GOGOEND
|
||||
000000100100200000100200200000200000100010001000,
|
||||
1011201110112210,
|
||||
2111202111204000,
|
||||
#GOGOSTART
|
||||
1011202010102010,
|
||||
#GOGOEND
|
||||
000000100100200000100200100020002000100020002000,
|
||||
3000202210102220,
|
||||
102010221020102210201022,
|
||||
|
||||
#GOGOSTART
|
||||
1000200011102011,
|
||||
#GOGOEND
|
||||
200000100000200000100100100020002000100000200000,
|
||||
102010001000200010001000200000200000100000200000,
|
||||
000000200000100000500000000000000000000008000000,
|
||||
#GOGOSTART
|
||||
2111112121111121,
|
||||
100200100100100100200100102020100100102020100000,
|
||||
#GOGOEND
|
||||
201010101020201022101020,
|
||||
2112211270008000,
|
||||
|
||||
#GOGOSTART
|
||||
1000200011102010,
|
||||
#GOGOEND
|
||||
0010201120202000,
|
||||
100010201000200010001000200000200000100000200000,
|
||||
000000200000100000500000000000000000000008000000,
|
||||
#GOGOSTART
|
||||
201012101020201020101010,
|
||||
202010101220201022102010,
|
||||
#GOGOEND
|
||||
2111202010221022,
|
||||
100200200000200000200000101020002000100020002000,
|
||||
|
||||
200010001000100020001000100010002020100100200000,
|
||||
000000200000200200200200500000000000000008000000,
|
||||
|
||||
#GOGOSTART
|
||||
1110202010221010,
|
||||
0011201120111020,
|
||||
0010211021102010,
|
||||
100100100000200000500008000000200000200000200000,
|
||||
1110202010221020,
|
||||
0010221122112210,
|
||||
2211112211112211,
|
||||
#GOGOEND
|
||||
200020002000100010001000200200100100200200100100,
|
||||
|
||||
#GOGOSTART
|
||||
1010202011221020,
|
||||
0020111010221010,
|
||||
1110202010221010,
|
||||
100100100000200000600008000000100100200000200000,
|
||||
1010202010221020,
|
||||
0020101020121010,
|
||||
|
||||
2212112212112211,
|
||||
2212112212112211,
|
||||
1111221222112212,
|
||||
102020100100200200101020200200100200200020001000,
|
||||
202020100100202020100100202020100100202020100100,
|
||||
#GOGOEND
|
||||
100000500000000000000000000000000008000000000000,
|
||||
|
||||
#GOGOSTART
|
||||
#BPMCHANGE 284
|
||||
#SCROLL 0.67
|
||||
30110101,
|
||||
#GOGOEND
|
||||
#MEASURE 3/4
|
||||
001110001000,
|
||||
#MEASURE 4/4
|
||||
#SCROLL 0.75
|
||||
#GOGOSTART
|
||||
30110101,
|
||||
#GOGOEND
|
||||
#MEASURE 3/4
|
||||
001110001000,
|
||||
#MEASURE 4/4
|
||||
#SCROLL 0.83
|
||||
#GOGOSTART
|
||||
30110101,
|
||||
#GOGOEND
|
||||
#MEASURE 3/4
|
||||
001110001000,
|
||||
#MEASURE 4/4
|
||||
#GOGOSTART
|
||||
#SCROLL 0.92
|
||||
30110101,
|
||||
#GOGOEND
|
||||
#MEASURE 3/4
|
||||
001110001000,
|
||||
|
||||
#MEASURE 4/4
|
||||
#GOGOSTART
|
||||
#SCROLL 1
|
||||
1110201000200010,
|
||||
02102010,
|
||||
1110201110201000,
|
||||
21202120,
|
||||
1110201000200010,
|
||||
02102010,
|
||||
1110201110201000,
|
||||
202020100100202020100100,
|
||||
|
||||
1110201000200010,
|
||||
02102010,
|
||||
1110201110201000,
|
||||
2010200022112000,
|
||||
3000111000111000,
|
||||
1110001110003000,
|
||||
3022111022111022,
|
||||
1110221112203000,
|
||||
#GOGOEND
|
||||
|
||||
111010
|
||||
#GOGOSTART
|
||||
4000004000,
|
||||
#GOGOEND
|
||||
111010
|
||||
#GOGOSTART
|
||||
4000004000,
|
||||
#GOGOEND
|
||||
111010
|
||||
#GOGOSTART
|
||||
4000004000,
|
||||
|
||||
6,
|
||||
,
|
||||
000000000000000000000000000000000000000000000008,
|
||||
#GOGOEND
|
||||
|
||||
|
||||
#END
|
||||
|
||||
|
||||
COURSE:Hard
|
||||
LEVEL:8
|
||||
BALLOON:8,4,9
|
||||
SCOREINIT:1460
|
||||
SCOREDIFF:0
|
||||
|
||||
|
||||
#START
|
||||
|
||||
|
||||
#MEASURE 7/8
|
||||
#SCROLL 1.5
|
||||
30001110001000,
|
||||
#SCROLL 1.4
|
||||
30001110001000,
|
||||
#SCROLL 1.3
|
||||
30002220001000,
|
||||
#SCROLL 1.2
|
||||
30001110001000,
|
||||
#SCROLL 1.1
|
||||
30001110001000,
|
||||
#SCROLL 1
|
||||
30002220003030,
|
||||
|
||||
#MEASURE 4/4
|
||||
30101012,
|
||||
100000100200101010100000,
|
||||
12101110,
|
||||
111111111100,
|
||||
#GOGOSTART
|
||||
1110101010111000,
|
||||
#GOGOEND
|
||||
100100100000100000100000100010001000100000000000,
|
||||
1110101010111000,
|
||||
111111300000,
|
||||
|
||||
#GOGOSTART
|
||||
1110101000200010,
|
||||
#GOGOEND
|
||||
000200100000101010100000,
|
||||
11211120,
|
||||
111111111100,
|
||||
#GOGOSTART
|
||||
1110101000200010,
|
||||
#GOGOEND
|
||||
000200100000101010100000,
|
||||
11211120,
|
||||
222222222200,
|
||||
|
||||
30110444,
|
||||
|
||||
#GOGOSTART
|
||||
11221121,
|
||||
#GOGOEND
|
||||
000100200100100000101010,
|
||||
11211120,
|
||||
1110101110104000,
|
||||
#GOGOSTART
|
||||
11221121,
|
||||
#GOGOEND
|
||||
000100200000101010101010,
|
||||
11211120,
|
||||
2220202220203000,
|
||||
|
||||
#GOGOSTART
|
||||
11221121,
|
||||
#GOGOEND
|
||||
000100200100100000101010,
|
||||
11211120,
|
||||
1110101110104000,
|
||||
#GOGOSTART
|
||||
11221121,
|
||||
#GOGOEND
|
||||
000100200000202020202020,
|
||||
10220122,
|
||||
7008,
|
||||
|
||||
#GOGOSTART
|
||||
10201101,
|
||||
#GOGOEND
|
||||
20201012,
|
||||
100000101010100000100200,
|
||||
000000200000100000500000000000000000000008000000,
|
||||
#GOGOSTART
|
||||
1000201110111011,
|
||||
1000201110101000,
|
||||
#GOGOEND
|
||||
111111111100,
|
||||
1110111070008000,
|
||||
|
||||
#GOGOSTART
|
||||
10201011,
|
||||
#GOGOEND
|
||||
02221210,
|
||||
100000101010100000100200,
|
||||
000000200000100000500000000000000000000008000000,
|
||||
#GOGOSTART
|
||||
111111111100,
|
||||
222222222200,
|
||||
#GOGOEND
|
||||
1110101010111000,
|
||||
100100100000100000100000100010001000100010001000,
|
||||
|
||||
100000101010101010100100,
|
||||
000000200000200000200000500000000000000008000000,
|
||||
|
||||
#GOGOSTART
|
||||
1000202010222010,
|
||||
0010201020111020,
|
||||
01212121,
|
||||
11210222,
|
||||
1000202010222010,
|
||||
0010222011102000,
|
||||
2011102011102010,
|
||||
#GOGOEND
|
||||
111111200200,
|
||||
|
||||
#GOGOSTART
|
||||
1000202010222020,
|
||||
02121210,
|
||||
11221110,
|
||||
11210222,
|
||||
1000202010222020,
|
||||
02112110,
|
||||
|
||||
2220102220102220,
|
||||
2220102220102220,
|
||||
1110111011101110,
|
||||
1110111011101000,
|
||||
2220111022201110,
|
||||
#GOGOEND
|
||||
7008,
|
||||
|
||||
#GOGOSTART
|
||||
#BPMCHANGE 284
|
||||
#SCROLL 0.67
|
||||
30110101,
|
||||
#GOGOEND
|
||||
#MEASURE 3/4
|
||||
011010,
|
||||
#MEASURE 4/4
|
||||
#SCROLL 0.75
|
||||
#GOGOSTART
|
||||
30110101,
|
||||
#GOGOEND
|
||||
#MEASURE 3/4
|
||||
011010,
|
||||
#MEASURE 4/4
|
||||
#SCROLL 0.83
|
||||
#GOGOSTART
|
||||
30110101,
|
||||
#GOGOEND
|
||||
#MEASURE 3/4
|
||||
011010,
|
||||
#MEASURE 4/4
|
||||
#GOGOSTART
|
||||
#SCROLL 0.92
|
||||
30110101,
|
||||
#GOGOEND
|
||||
#MEASURE 3/4
|
||||
011010,
|
||||
|
||||
#MEASURE 4/4
|
||||
#GOGOSTART
|
||||
#SCROLL 1
|
||||
10210201,
|
||||
02102010,
|
||||
11211210,
|
||||
2222,
|
||||
10210201,
|
||||
02102010,
|
||||
11211210,
|
||||
2121,
|
||||
|
||||
10210201,
|
||||
02102010,
|
||||
11211210,
|
||||
21202120,
|
||||
30110110,
|
||||
11011030,
|
||||
30110110,
|
||||
11011030,
|
||||
#GOGOEND
|
||||
|
||||
100
|
||||
#GOGOSTART
|
||||
40040,
|
||||
#GOGOEND
|
||||
100
|
||||
#GOGOSTART
|
||||
40040,
|
||||
#GOGOEND
|
||||
100
|
||||
#GOGOSTART
|
||||
40040,
|
||||
|
||||
6,
|
||||
,
|
||||
000000000000000000000000000000000000000000000008,
|
||||
#GOGOEND
|
||||
|
||||
|
||||
#END
|
||||
|
||||
|
||||
COURSE:Normal
|
||||
LEVEL:6
|
||||
BALLOON:6,5,6,7
|
||||
SCOREINIT:2550
|
||||
SCOREDIFF:0
|
||||
|
||||
|
||||
#START
|
||||
|
||||
|
||||
#MEASURE 7/8
|
||||
#SCROLL 1.5
|
||||
3011010,
|
||||
#SCROLL 1.4
|
||||
3011010,
|
||||
#SCROLL 1.3
|
||||
3022010,
|
||||
#SCROLL 1.2
|
||||
3011010,
|
||||
#SCROLL 1.1
|
||||
3011010,
|
||||
#SCROLL 1
|
||||
3022033,
|
||||
|
||||
#MEASURE 4/4
|
||||
30101012,
|
||||
1111,
|
||||
12101110,
|
||||
1111,
|
||||
#GOGOSTART
|
||||
11101010,
|
||||
#GOGOEND
|
||||
11101010,
|
||||
11101010,
|
||||
1140,
|
||||
|
||||
#GOGOSTART
|
||||
10110101,
|
||||
#GOGOEND
|
||||
01101010,
|
||||
11201120,
|
||||
1111,
|
||||
#GOGOSTART
|
||||
10110101,
|
||||
#GOGOEND
|
||||
01101010,
|
||||
11201120,
|
||||
2222,
|
||||
|
||||
30010444,
|
||||
|
||||
#GOGOSTART
|
||||
10201111,
|
||||
#GOGOEND
|
||||
01201010,
|
||||
11201120,
|
||||
10110040,
|
||||
#GOGOSTART
|
||||
10201111,
|
||||
#GOGOEND
|
||||
01201010,
|
||||
11201120,
|
||||
20220030,
|
||||
|
||||
#GOGOSTART
|
||||
10201111,
|
||||
#GOGOEND
|
||||
01201010,
|
||||
11201120,
|
||||
10110040,
|
||||
#GOGOSTART
|
||||
10201111,
|
||||
#GOGOEND
|
||||
01201010,
|
||||
10110110,
|
||||
7008,
|
||||
|
||||
#GOGOSTART
|
||||
10001101,
|
||||
#GOGOEND
|
||||
2210,
|
||||
10101011,
|
||||
000000100000100000500000000000000000000008000000,
|
||||
#GOGOSTART
|
||||
10111011,
|
||||
10211110,
|
||||
#GOGOEND
|
||||
500000000000000000000000000000000008000000000000,
|
||||
7008,
|
||||
|
||||
#GOGOSTART
|
||||
10001011,
|
||||
#GOGOEND
|
||||
02201110,
|
||||
10101011,
|
||||
000000100000100000500000000000000000000008000000,
|
||||
#GOGOSTART
|
||||
1121,
|
||||
2212,
|
||||
#GOGOEND
|
||||
10110110,
|
||||
11011010,
|
||||
|
||||
70000008,
|
||||
000000200000200000200000500000000000000008000000,
|
||||
|
||||
#GOGOSTART
|
||||
10221021,
|
||||
01101011,
|
||||
01101010,
|
||||
11210020,
|
||||
10221021,
|
||||
01101010,
|
||||
30030030,
|
||||
#GOGOEND
|
||||
500000000000000000000000000000000008000000000000,
|
||||
|
||||
#GOGOSTART
|
||||
10221021,
|
||||
01101011,
|
||||
10101110,
|
||||
11210020,
|
||||
10221021,
|
||||
01101010,
|
||||
|
||||
30030030,
|
||||
30030030,
|
||||
11111111,
|
||||
11111110,
|
||||
500000000000000000000000000000000000000008000000,
|
||||
#GOGOEND
|
||||
7008,
|
||||
|
||||
#GOGOSTART
|
||||
#BPMCHANGE 284
|
||||
#SCROLL 0.67
|
||||
3,
|
||||
#GOGOEND
|
||||
#MEASURE 3/4
|
||||
,
|
||||
#MEASURE 4/4
|
||||
#SCROLL 0.75
|
||||
#GOGOSTART
|
||||
3,
|
||||
#GOGOEND
|
||||
#MEASURE 3/4
|
||||
,
|
||||
#MEASURE 4/4
|
||||
#SCROLL 0.83
|
||||
#GOGOSTART
|
||||
3,
|
||||
#GOGOEND
|
||||
#MEASURE 3/4
|
||||
,
|
||||
#MEASURE 4/4
|
||||
#GOGOSTART
|
||||
#SCROLL 0.92
|
||||
3,
|
||||
#GOGOEND
|
||||
#MEASURE 3/4
|
||||
,
|
||||
|
||||
#MEASURE 4/4
|
||||
#GOGOSTART
|
||||
#SCROLL 1
|
||||
10110001,
|
||||
01101000,
|
||||
10110010,
|
||||
1110,
|
||||
10110001,
|
||||
01101000,
|
||||
10110010,
|
||||
2220,
|
||||
|
||||
10110001,
|
||||
01101000,
|
||||
10110010,
|
||||
1110,
|
||||
30010010,
|
||||
01001000,
|
||||
30010010,
|
||||
01001000,
|
||||
#GOGOEND
|
||||
|
||||
000
|
||||
#GOGOSTART
|
||||
40040,
|
||||
#GOGOEND
|
||||
000
|
||||
#GOGOSTART
|
||||
40040,
|
||||
#GOGOEND
|
||||
000
|
||||
#GOGOSTART
|
||||
40040,
|
||||
|
||||
6,
|
||||
,
|
||||
000000000000000000000000000000000000000000000008,
|
||||
#GOGOEND
|
||||
|
||||
|
||||
#END
|
||||
|
||||
|
||||
COURSE:Easy
|
||||
LEVEL:5
|
||||
BALLOON:4,4,10,4
|
||||
SCOREINIT:4570
|
||||
SCOREDIFF:0
|
||||
|
||||
|
||||
#START
|
||||
|
||||
|
||||
#MEASURE 7/8
|
||||
#SCROLL 1.5
|
||||
3011010,
|
||||
#SCROLL 1.4
|
||||
3011010,
|
||||
#SCROLL 1.3
|
||||
3022010,
|
||||
#SCROLL 1.2
|
||||
3011010,
|
||||
#SCROLL 1.1
|
||||
3011010,
|
||||
#SCROLL 1
|
||||
3022033,
|
||||
|
||||
#MEASURE 4/4
|
||||
3,
|
||||
1,
|
||||
11,
|
||||
1110,
|
||||
#GOGOSTART
|
||||
11,
|
||||
#GOGOEND
|
||||
11,
|
||||
11,
|
||||
1140,
|
||||
|
||||
#GOGOSTART
|
||||
10000001,
|
||||
#GOGOEND
|
||||
0110,
|
||||
11,
|
||||
1111,
|
||||
#GOGOSTART
|
||||
10000001,
|
||||
#GOGOEND
|
||||
0110,
|
||||
11,
|
||||
2222,
|
||||
|
||||
30010333,
|
||||
|
||||
#GOGOSTART
|
||||
10201001,
|
||||
#GOGOEND
|
||||
0210,
|
||||
1210,
|
||||
10010010,
|
||||
#GOGOSTART
|
||||
10201001,
|
||||
#GOGOEND
|
||||
0210,
|
||||
1210,
|
||||
20020020,
|
||||
|
||||
#GOGOSTART
|
||||
10201001,
|
||||
#GOGOEND
|
||||
0210,
|
||||
1210,
|
||||
10010010,
|
||||
#GOGOSTART
|
||||
10201001,
|
||||
#GOGOEND
|
||||
0210,
|
||||
1210,
|
||||
7008,
|
||||
|
||||
#GOGOSTART
|
||||
11,
|
||||
#GOGOEND
|
||||
1110,
|
||||
10101005,
|
||||
800000500000000000000000000008000000000000000000,
|
||||
#GOGOSTART
|
||||
1011,
|
||||
1011,
|
||||
#GOGOEND
|
||||
500000000000000000000000000000000008000000000000,
|
||||
7008,
|
||||
|
||||
#GOGOSTART
|
||||
11,
|
||||
#GOGOEND
|
||||
1110,
|
||||
10101005,
|
||||
800000500000000000000000000008000000000000000000,
|
||||
#GOGOSTART
|
||||
1011,
|
||||
2022,
|
||||
#GOGOEND
|
||||
10010010,
|
||||
01001000,
|
||||
|
||||
7,
|
||||
00000800,
|
||||
|
||||
#GOGOSTART
|
||||
10101001,
|
||||
00101001,
|
||||
0110,
|
||||
500000000000000000000008000000000000000000000000,
|
||||
10101001,
|
||||
0110,
|
||||
30030030,
|
||||
#GOGOEND
|
||||
500000000000000000000000000008000000000000000000,
|
||||
|
||||
#GOGOSTART
|
||||
10201001,
|
||||
0110,
|
||||
1110,
|
||||
500000000000000000000008000000000000000000000000,
|
||||
10201001,
|
||||
0110,
|
||||
|
||||
30030030,
|
||||
30030030,
|
||||
5,
|
||||
,
|
||||
850000000000000000000000000000000000000008000000,
|
||||
#GOGOEND
|
||||
7008,
|
||||
|
||||
#GOGOSTART
|
||||
#BPMCHANGE 284
|
||||
#SCROLL 0.67
|
||||
3,
|
||||
#GOGOEND
|
||||
#MEASURE 3/4
|
||||
,
|
||||
#MEASURE 4/4
|
||||
#SCROLL 0.75
|
||||
#GOGOSTART
|
||||
3,
|
||||
#GOGOEND
|
||||
#MEASURE 3/4
|
||||
,
|
||||
#MEASURE 4/4
|
||||
#SCROLL 0.83
|
||||
#GOGOSTART
|
||||
3,
|
||||
#GOGOEND
|
||||
#MEASURE 3/4
|
||||
,
|
||||
#MEASURE 4/4
|
||||
#GOGOSTART
|
||||
#SCROLL 0.92
|
||||
3,
|
||||
#GOGOEND
|
||||
#MEASURE 3/4
|
||||
,
|
||||
|
||||
#MEASURE 4/4
|
||||
#GOGOSTART
|
||||
#SCROLL 1
|
||||
10000001,
|
||||
01,
|
||||
1,
|
||||
11,
|
||||
10000001,
|
||||
01,
|
||||
1,
|
||||
22,
|
||||
|
||||
10000001,
|
||||
01,
|
||||
1,
|
||||
11,
|
||||
3001,
|
||||
01,
|
||||
3001,
|
||||
01,
|
||||
#GOGOEND
|
||||
|
||||
000
|
||||
#GOGOSTART
|
||||
40040,
|
||||
#GOGOEND
|
||||
000
|
||||
#GOGOSTART
|
||||
40040,
|
||||
#GOGOEND
|
||||
000
|
||||
#GOGOSTART
|
||||
40040,
|
||||
|
||||
6,
|
||||
,
|
||||
000000000000000000000000000000000000000000000008,
|
||||
#GOGOEND
|
||||
|
||||
|
||||
#END
|
||||
|
||||
Reference in New Issue
Block a user