update
This commit is contained in:
369
tja/1105.tja
Normal file
369
tja/1105.tja
Normal file
@@ -0,0 +1,369 @@
|
||||
//TJADB Project
|
||||
TITLE:sekai note
|
||||
TITLEJA:せかいのおと -sekai note-
|
||||
SUBTITLE:--FILTER SYSTEM/Synchronica
|
||||
SUBTITLEJA:FILTER SYSTEM 「シンクロニカ」より
|
||||
BPM:160
|
||||
WAVE:sekai note.ogg
|
||||
OFFSET:-1.9
|
||||
DEMOSTART:36.4
|
||||
|
||||
COURSE:Oni
|
||||
LEVEL:8
|
||||
BALLOON:30,32
|
||||
SCOREINIT:2130
|
||||
SCOREDIFF:
|
||||
|
||||
#START
|
||||
,
|
||||
,
|
||||
,
|
||||
0200,
|
||||
0200,
|
||||
0200,
|
||||
0200,
|
||||
11,
|
||||
11,
|
||||
11,
|
||||
1,
|
||||
111211,
|
||||
111211,
|
||||
211211,
|
||||
4443,
|
||||
1000202200102022,
|
||||
1000202212102202,
|
||||
1000202210102120,
|
||||
1000202201102011,
|
||||
1000202200102022,
|
||||
1000202212102202,
|
||||
1000202210102120,
|
||||
1000202201101000,
|
||||
#GOGOSTART
|
||||
101210101210,
|
||||
202120202120,
|
||||
101210202120,
|
||||
101210201210,
|
||||
101210101210,
|
||||
202120202120,
|
||||
101210202120,
|
||||
122120122120,
|
||||
#GOGOEND
|
||||
3210,
|
||||
1200,
|
||||
1210,
|
||||
1200,
|
||||
5,
|
||||
000000000000000000000000000000000000000008000000,
|
||||
7,
|
||||
08,
|
||||
100100100111,
|
||||
200100100111,
|
||||
100100100111,
|
||||
200100100111,
|
||||
100100100111,
|
||||
100100100111,
|
||||
100100100111,
|
||||
1,
|
||||
1010201120201202,
|
||||
1010202212102202,
|
||||
1010201120201202,
|
||||
1010202202112000,
|
||||
1010201120201202,
|
||||
1010202212102202,
|
||||
1020102210201102,
|
||||
101010101010100100400000,
|
||||
1020102200102022,
|
||||
1020102212102202,
|
||||
1020102210102120,
|
||||
1020102201102011,
|
||||
1020102200102022,
|
||||
1020102212102202,
|
||||
1020102210102120,
|
||||
1020102201102000,
|
||||
#GOGOSTART
|
||||
101210111210,
|
||||
202120222120,
|
||||
101210222120,
|
||||
111210121210,
|
||||
122120122120,
|
||||
122120122120,
|
||||
111211112121,
|
||||
122121121211,
|
||||
#GOGOEND
|
||||
5,
|
||||
000000000000000000000000000000000000000008000000,
|
||||
7,
|
||||
0008,
|
||||
1,
|
||||
,
|
||||
2,
|
||||
#END
|
||||
|
||||
COURSE:Hard
|
||||
LEVEL:4
|
||||
BALLOON:42
|
||||
SCOREINIT:3520
|
||||
SCOREDIFF:0
|
||||
|
||||
#START
|
||||
,
|
||||
,
|
||||
,
|
||||
0200,
|
||||
0200,
|
||||
0200,
|
||||
0200,
|
||||
11,
|
||||
11,
|
||||
11,
|
||||
1,
|
||||
111100,
|
||||
111100,
|
||||
111111,
|
||||
3333,
|
||||
10200120,
|
||||
10201120,
|
||||
10201120,
|
||||
1000200022202000,
|
||||
10200120,
|
||||
10201120,
|
||||
10201120,
|
||||
1000200011101000,
|
||||
#GOGOSTART
|
||||
111111,
|
||||
222200,
|
||||
111222,
|
||||
111200,
|
||||
111111,
|
||||
222200,
|
||||
111222,
|
||||
111200,
|
||||
#GOGOEND
|
||||
3,
|
||||
,
|
||||
,
|
||||
,
|
||||
0200,
|
||||
0200,
|
||||
0200,
|
||||
0200,
|
||||
100100100111,
|
||||
1110,
|
||||
100100100111,
|
||||
1110,
|
||||
100100100111,
|
||||
1110,
|
||||
100100100111,
|
||||
1,
|
||||
11211200,
|
||||
11221100,
|
||||
11211200,
|
||||
11221100,
|
||||
11211200,
|
||||
11221100,
|
||||
1111,
|
||||
111100100400,
|
||||
10200120,
|
||||
10201120,
|
||||
10201120,
|
||||
1000200022202000,
|
||||
10200120,
|
||||
10201120,
|
||||
10201120,
|
||||
1000200011102000,
|
||||
#GOGOSTART
|
||||
111111,
|
||||
222222,
|
||||
111222,
|
||||
111222,
|
||||
111111,
|
||||
222222,
|
||||
111222,
|
||||
111222,
|
||||
#GOGOEND
|
||||
9,
|
||||
,
|
||||
,
|
||||
,
|
||||
8,
|
||||
,
|
||||
1,
|
||||
#END
|
||||
|
||||
COURSE:Normal
|
||||
LEVEL:2
|
||||
BALLOON:36
|
||||
SCOREINIT:7120
|
||||
SCOREDIFF:
|
||||
|
||||
#START
|
||||
,
|
||||
,
|
||||
,
|
||||
0200,
|
||||
0200,
|
||||
0200,
|
||||
0200,
|
||||
1,
|
||||
1,
|
||||
1,
|
||||
1,
|
||||
11,
|
||||
11,
|
||||
11,
|
||||
3333,
|
||||
1,
|
||||
11,
|
||||
22,
|
||||
2,
|
||||
1,
|
||||
11,
|
||||
22,
|
||||
2,
|
||||
#GOGOSTART
|
||||
111100,
|
||||
111100,
|
||||
111100,
|
||||
111100,
|
||||
111100,
|
||||
111100,
|
||||
111100,
|
||||
111100,
|
||||
#GOGOEND
|
||||
3,
|
||||
,
|
||||
,
|
||||
,
|
||||
0200,
|
||||
0200,
|
||||
0200,
|
||||
0200,
|
||||
1,
|
||||
1,
|
||||
1,
|
||||
1,
|
||||
11,
|
||||
11,
|
||||
11,
|
||||
,
|
||||
10011000,
|
||||
11,
|
||||
10011000,
|
||||
11,
|
||||
10011000,
|
||||
11,
|
||||
1111,
|
||||
500000000000000000000000000000000008000000000000,
|
||||
1,
|
||||
11,
|
||||
22,
|
||||
2,
|
||||
1,
|
||||
11,
|
||||
22,
|
||||
2,
|
||||
#GOGOSTART
|
||||
111100,
|
||||
111100,
|
||||
111100,
|
||||
222200,
|
||||
111100,
|
||||
111100,
|
||||
111100,
|
||||
222200,
|
||||
#GOGOEND
|
||||
9,
|
||||
,
|
||||
,
|
||||
,
|
||||
8,
|
||||
#END
|
||||
|
||||
COURSE:Easy
|
||||
LEVEL:1
|
||||
BALLOON:3,30
|
||||
SCOREINIT:14220
|
||||
SCOREDIFF:
|
||||
|
||||
#START
|
||||
,
|
||||
,
|
||||
,
|
||||
0200,
|
||||
,
|
||||
0200,
|
||||
,
|
||||
1,
|
||||
,
|
||||
1,
|
||||
,
|
||||
1,
|
||||
1,
|
||||
11,
|
||||
78,
|
||||
,
|
||||
11,
|
||||
11,
|
||||
1,
|
||||
1,
|
||||
11,
|
||||
11,
|
||||
1,
|
||||
#GOGOSTART
|
||||
11,
|
||||
1,
|
||||
11,
|
||||
1,
|
||||
11,
|
||||
1,
|
||||
11,
|
||||
1,
|
||||
#GOGOEND
|
||||
3,
|
||||
,
|
||||
,
|
||||
,
|
||||
0200,
|
||||
,
|
||||
0200,
|
||||
,
|
||||
1,
|
||||
,
|
||||
1,
|
||||
,
|
||||
1,
|
||||
1,
|
||||
1,
|
||||
,
|
||||
1,
|
||||
01,
|
||||
1,
|
||||
01,
|
||||
1,
|
||||
01,
|
||||
5,
|
||||
000000000000000000000000000008000000000000000000,
|
||||
1,
|
||||
11,
|
||||
11,
|
||||
1,
|
||||
1,
|
||||
11,
|
||||
11,
|
||||
1,
|
||||
#GOGOSTART
|
||||
11,
|
||||
1,
|
||||
22,
|
||||
2,
|
||||
11,
|
||||
1,
|
||||
22,
|
||||
2,
|
||||
#GOGOEND
|
||||
9,
|
||||
,
|
||||
,
|
||||
,
|
||||
8,
|
||||
#END
|
||||
Reference in New Issue
Block a user