This commit is contained in:
2026-03-07 15:37:31 +09:00
parent 4b4e2b8c98
commit 60bc4e620d
110 changed files with 71338 additions and 0 deletions

456
tja/1253.tja Normal file
View File

@@ -0,0 +1,456 @@
//TJADB Project
TITLE:Matsuken Samba Ⅱ
TITLEJA:マツケンサンバⅡ
SUBTITLE:--Ken Matsudaira & Akira Miyagawa
BPM:127.212
WAVE:Matsuken Samba II.ogg
OFFSET:-4.441
DEMOSTART:22.570
COURSE:Oni
LEVEL:8
STYLE:Double
BALLOON:11
SCOREINIT:850
SCOREDIFF:170
#START P1
300000000000000000000000000000000000000000000000,
000000000000000000000000000000000000000000000000,
300000000000000000000000000000000000000000000000,
100000000100000100000100100200000100200000100000,
100000200000100000100100100000200000100000100100,
100000200000100100200100000100100200100000200000,
300000000000100000000000100000000000100000000000,
100000000000100000000000100000000000100000200000,
100000100100200200200100000100000200100000100000,
100000000200000000100000000000000000000000000000,
#GOGOSTART
100000200200100100200000100200000100100000200000,
100000200200100100200000100200000200100000200000,
100000200000100200000200100000200200100000200000,
100000200000100200200000100100000100100000200000,
100000200200100100200000100200000100100000200000,
100000200200100100200000100200000100100000200000,
100000200200100000200000100000200200100000200000,
100000100100200200200100000100000200100000100000,
100000000200000000300000000000000000000000000000,
#GOGOEND
100000200000100000200200100000200200100000100000,
100000200000100000200200100000200200100100200000,
100000200000100000200200100000200000100000200000,
100000100100100100100100100000200000100100100000,
100000200000100000200100000100200000100000200000,
100000200000100000200100000100200000100200200000,
100000100100000100100000100000200000100000000000,
500000000000000000000000000000000000000008000000,
400000000400000000400000000000000000100200200000,
#GOGOSTART
100000200000100000200200100200200000100000200000,
100000200000100000200200100200200000100200200000,
100100100100100000000000100000200000100000000000,
300000000300000000300000000000000000100200200000,
100000200000100000200200100200200000100000200000,
100000200000100000200200100200200000100200200000,
100100200200200000000000100000200000100000000000,
300000000300000000500000000000000000000000000000,
#GOGOEND
000000000000000000000000800000100100100000100000,
1011002000200011,
11020202,
300000200200100000200000300000200200100000200000,
300000100000100000000000100000000100000000700000,
000000000000000000000000000000000000800000000000,
#GOGOSTART
100000200000100000200200000100100000100000200000,
100000200000100000200200000100100000200000000000,
100000000000200000000000100000000000200000000000,
300000000000000000300000000000000000600000000000,
000000000000000000000000000000000000000008000000,
100000000100000000100000000000000000000000400000,
#GOGOEND
300000100100200200200100000100000200100000200000,
100000100100200200200100000100000200100000200000,
300000100100200200200100000100000200100000100000,
100000000200000000300000000000000000000000000000,
#END
#START P2
300000000000000000000000000000000000000000000000,
000000000000000000000000000000000000000000000000,
300000000000000000000000000000000000000000000000,
100000000100000100000100100200000100200000100000,
100000200000100000100100100000200000100000100100,
100000200000100100200100000100100200100000200000,
300000000000100000000000100000000000100000000000,
1011222101021010,
10101012,
100000000200000000100000000000000000000000000000,
#GOGOSTART
100000200200100100200000100200000100100000200000,
100000200200100100200000100200000200100000200000,
100000200000100200000200100000200200100000200000,
100000200000100200200000100100000100100000200000,
100000200200100100200000100200000100100000200000,
100000200200100100200000100200000100100000200000,
100000200200100000200000100000200200100000200000,
100000100100200200200100000100000200100000100000,
100000000200000000300000000000000000000000000000,
#GOGOEND
100000200000100000200200100000200200100000100000,
100000200000100000200200100000200200100100200000,
100000200000100000200200100000200000100000200000,
100000100100100100100100100000200000100100100000,
100000200000100000200100000100200000100000200000,
100000200000100000200100000100200000100200200000,
100000100100000100100000100000200000100000000000,
500000000000000000000000000000000000000008000000,
400000000400000000400000000000000000100200200000,
#GOGOSTART
100000200000100000200200100200200000100000200000,
100000200000100000200200100200200000100200200000,
100100100100100000000000100000200000100000000000,
300000000300000000300000000000000000100200200000,
100000200000100000200200100200200000100000200000,
100000200000100000200200100200200000100200200000,
100100200200200000000000100000200000100000000000,
300000000300000000300000000000000000000000000000,
#GOGOEND
1122010120001020,
3000002220040020,
1000222020040020,
300000200200100000200000300000200200100000200000,
300000100000100000000000100000000100000000700000,
000000000000000000000000000000000000800000000000,
#GOGOSTART
100000200000100000200200000100100000100000200000,
100000200000100000200200000100100000200000000000,
100000000000200000000000100000000000200000000000,
300000000000000000300000000000000000600000000000,
000000000000000000000000000000000000000008000000,
100000000100000000100000000000000000000000400000,
#GOGOEND
300000100100200200200100000100000200100000200000,
100000100100200200200100000100000200100000200000,
300000100100200200200100000100000200100000100000,
100000000200000000300000000000000000000000000000,
#END
STYLE:Single
BALLOON:11
SCOREINIT:780
SCOREDIFF:220
#START
300000000000000000000000000000000000000000000000,
000000000000000000000000000000000000000000000000,
300000000000000000000000000000000000000000000000,
100000000100000100000100100200000100200000100000,
100000200000100000100100100000200000100000100100,
100000200000100100200100000100100200100000200000,
300000000000100000000000100000000000100000000000,
100000000000100000000000100000000000100000200000,
100000100100200200200100000100000200100000100000,
100000000200000000100000000000000000000000000000,
#GOGOSTART
100000200200100100200000100200000100100000200000,
100000200200100100200000100200000200100000200000,
100000200000100200000200100000200200100000200000,
100000200000100200200000100100000100100000200000,
100000200200100100200000100200000100100000200000,
100000200200100100200000100200000100100000200000,
100000200200100000200000100000200200100000200000,
100000100100200200200100000100000200100000100000,
100000000200000000300000000000000000000000000000,
#GOGOEND
100000200000100000200200100000200200100000100000,
100000200000100000200200100000200200100100200000,
100000200000100000200200100000200000100000200000,
100000100100100100100100100000200000100100100000,
100000200000100000200100000100200000100000200000,
100000200000100000200100000100200000100200200000,
100000100100000100100000100000200000100000000000,
500000000000000000000000000000000000000008000000,
400000000400000000400000000000000000100200200000,
#GOGOSTART
100000200000100000200200100200200000100000200000,
100000200000100000200200100200200000100200200000,
100100100100100000000000100000200000100000000000,
300000000300000000300000000000000000100200200000,
100000200000100000200200100200200000100000200000,
100000200000100000200200100200200000100200200000,
100100200200200000000000100000200000100000000000,
300000000300000000300000000000000000000000000000,
#GOGOEND
100100200200000100000100200000100100100000100000,
300000000000000000200000200000000200000000100000,
300000000000200000200000200000000200000000200000,
300000200200100000200000300000200200100000200000,
300000100000100000000000100000000100000000700000,
000000000000000000000000000000000000800000000000,
#GOGOSTART
100000200000100000200200000100100000100000200000,
100000200000100000200200000100100000200000000000,
100000000000200000000000100000000000200000000000,
300000000000000000300000000000000000600000000000,
000000000000000000000000000000000000000008000000,
100000000100000000100000000000000000000000400000,
#GOGOEND
300000100100200200200100000100000200100000200000,
100000100100200200200100000100000200100000200000,
300000100100200200200100000100000200100000100000,
100000000200000000300000000000000000000000000000,
#END
COURSE:Hard
LEVEL:6
BALLOON:9
SCOREINIT:810
SCOREDIFF:245
#START
300000000000000000000000000000000000000000000000,
300000000000000000000000100000000100000100000100,
000100000100100000000000000000000000000000000000,
100000000000100000100100100000000000100000100100,
100000000000100000100100000100000100100000000000,
100000000000100000000000100000000000100000100000,
100000000000100000000000100000000000100000000000,
100000100100100000000100000100000100100000000000,
100000000200000000100000000000000000000000000000,
#GOGOSTART
100000100000100000100100000100000100100000000000,
100000100000100000100100000100000100100000000000,
100000100000100000100100000000100000100000000000,
100000000000100000000000100100000100100000000000,
100000100000100000100100000100000100100000000000,
100000100000100000100100000100000100100000000000,
100000100000100000100100000000100000100000000000,
100000100000100000100100000100000100100000000000,
100000000200000000300000000000000000000000000000,
#GOGOEND
100000000000100000000000100000100100100000100000,
100000000000100000000000100000100100100000100000,
100000000000100000000000100000100100100000100000,
100000000000100000000000100000100100100000100000,
100000000000100000100100000000100000100000000000,
100000000000100000100100000000100000100000000000,
100000100100000000100000100000000000100000000000,
500000000000000000000000000000000000000800000000,
400000000400000000400000000000000000100000000000,
#GOGOSTART
100000100000100000100100000100100000100000000000,
100000200000100000100100000100000100100000000000,
100000100100100000000000100000200000100000000000,
300000000300000000300000000000000000100000000000,
100000100000100000100100000100100000100000000000,
100000200000100000100100000100100000100000000000,
200000200200200000000000100000200000100000000000,
300000000300000000300000000000000000000000000000,
#GOGOEND
100000100000000100000100100000000000000000100000,
100000000000000000200000200000000200000000100000,
100000000000200000200000200000000000200000000000,
100000100100100000000000100000100100100000000000,
100000000000100000000000100000000100000000700000,
000000000000000000000000000800000000000000000000,
#GOGOSTART
100000200000100000100100000000100000100000000000,
100000200000100000100100000000200000200000000000,
100000000000200000000000100000000000200000000000,
300000000000000000400000000000000000600000000000,
000000000000000000000000000000000000000000000800,
000000000000000000000000000000300000000000000000,
#GOGOEND
300000000000100000000000100000000000100000000000,
100000100100100000000100000100000100100000000000,
100000100100100000000100000100000100100000000000,
100000000200000000300000000000000000000000000000,
#END
COURSE:Normal
LEVEL:5
BALLOON:9
SCOREINIT:920
SCOREDIFF:320
#START
300000000000000000000000000000000000000000000000,
000000000000000000000000000000000000000000000000,
300000000000000000000000000000000000000000000000,
100000000000000000100000000000000000100000000000,
100000000000100000100100000000000000000000000000,
100000000000100000100100000000000000000000000000,
100000000000100000000000100000000000100000000000,
100000000000100000000000100000000000100000000000,
100000100000100000000000200000200000200000000000,
100000000100000000100000000000000000000000000000,
#GOGOSTART
100000000000100000100100000000000000000000000000,
100000000000100000100100000000000000000000000000,
100000000000100000100100000000000000000000000000,
100000000000100000000000100000000000200000000000,
100000000000100000100100000000000000000000000000,
100000000000100000100100000000000000000000000000,
100000000000000000000000100000000000100000000000,
100000100000100000000000200000200000200000000000,
100000000100000000100000000000000000000000000000,
#GOGOEND
100000000000100000000000100000000000100000100000,
100000000000100000000000100000000000100000100000,
100000000000100000000000100000000000100000100000,
100000000000100000000000100000000000000000000000,
100000000000100000100100000000000000000000000000,
100000000000100000100100000000000000000000000000,
100000000000100000000000100000000000100000000000,
500000000000000000000000000000000800000000000000,
400000000400000000400000000000000000000000000000,
#GOGOSTART
100000000000100000100100000000000000100000000000,
100000000000100000100100000000000000000000000000,
200000200000200000000000100000200000100000000000,
300000000300000000300000000000000000000000000000,
100000000000100000100100000000000000100000000000,
100000000000100000100100000000000000000000000000,
200000200000200000000000100000200000100000000000,
300000000300000000900000000000000000000000000000,
#GOGOEND
000000000000000000000000800000000000000000000000,
300000000000000000200000200000000200000000000000,
300000000000200000200000200000000200000000000000,
100000100000000000000000100000100000000000000000,
100000000000100000000000100000000000100000000000,
500000000000000000000000000000000800000000000000,
#GOGOSTART
100000000000100000100100000000000000000000000000,
100000000000100000100100000000000000000000000000,
100000000000200000000000100000000000200000000000,
300000000000000000300000000000000000600000000000,
000000000000000000000000000000000000000000000800,
000000000000000000000000000000000000000000300000,
#GOGOEND
300000000000100000000000100000000000100000000000,
100000000000100000000000100000000000100000000000,
100000100000100000000000200000200000200000000000,
100000000200000000300000000000000000000000000000,
#END
COURSE:Easy
LEVEL:5
BALLOON:6,6,7,5
SCOREINIT:850
SCOREDIFF:353
#START
300000000000000000000000000000000000000000000000,
000000000000000000000000000000000000000000000000,
300000000000000000000000000000000000000000000000,
100000000000000000100000000000000000200000000000,
100000000000000000100000000000000000200000000000,
100000000000000000100000000000000000200000000000,
100000000000100000000000100000000000000000000000,
100000000000100000000000100000000000000000000000,
100000000000100000000000100000000000200000000000,
100000000000000000300000000000000000000000000000,
#GOGOSTART
100000000000000000100100000000000000000000000000,
100000000000000000200200000000000000000000000000,
100000000000100000000000100000000000000000000000,
200000000000200000000000200000000000000000000000,
100000000000000000100100000000000000000000000000,
100000000000000000200200000000000000000000000000,
100000000000100000000000100000000000000000000000,
100000000000100000000000100000000000200000000000,
100000000000000000100000000000000000000000000000,
#GOGOEND
100000000000000000100100000000000000000000000000,
100000000000000000100100000000000000000000000000,
100000000000100000000000100000000000100000000000,
500000000000000000000800000000000000000000000000,
100100000000000000100100000000000000000000000000,
100100000000000000100100000000000000000000000000,
100000000000100000000000100000000000100000000000,
500000000000000000000000000000000000000000800000,
000000000000000000000000000000000000100000000000,
#GOGOSTART
500000000000000000800000000000000000100000000000,
700000000000000000000000000000000000800000000000,
000000000000000000000000100000100000100000000000,
300000000300000000300000000000000000100000000000,
500000000000000000000008000000000000100000000000,
700000000000000000000000000000000000800000000000,
000000000000000000000000100000100000100000000000,
300000000300000000900000000000000000000000000000,
#GOGOEND
000000000000000000000000800000000000000000000000,
000000000000000000200000200000000200000000000000,
000000000000200000200000200000000200000000000000,
100000000000100000000000100000000000100000000000,
100000000000000000000000100000000000000000700000,
000000000000000000000000000000000000800000000000,
#GOGOSTART
100000000000000000100100000000000000100000000000,
100000000000000000100100000000000000000000000000,
100000000000200000000000100000000000000000000000,
300000000000000000300000000000000000600000000000,
000000000000000000000000000000000000000000000800,
000000000000000000000000000000000000000000300000,
#GOGOEND
300000000000000000000000000000000000000000000000,
100000000000100000000000100000000000000000000000,
100000000000100000000000100000000000200000000000,
100000000000000000300000000000000000000000000000,
#END