This commit is contained in:
2026-03-07 15:37:31 +09:00
parent 4b4e2b8c98
commit 60bc4e620d
110 changed files with 71338 additions and 0 deletions

292
tja/1348.tja Normal file
View File

@@ -0,0 +1,292 @@
//TJADB Project
TITLE:Wasurenagusa
TITLEJA:わすれなぐさ
SUBTITLE:--Yuuji Masubuchi feat. Mika Sato
BPM:130
WAVE:Wasurenagusa.ogg
OFFSET:-1.982
DEMOSTART:59.203
COURSE:Oni
LEVEL:9
BALLOON:40
SCOREINIT:710
SCOREDIFF:190
#START
0000000000222010,
0010210110102040,
0010103000112000,
1002021100102210,
0110220102112002,
1002021100112210,
1021010302211110,
1001211200011020,
0010220101022010,
0010220101022010,
1022122102022010,
1001211200011020,
100000100000200200000100000100000200100010002000,
1021001110210011,
1021021022102100,
1021211202020110,
1010220101022020,
1010220102011020,
1022122101222010,
1021211202111020,
1010220101012200,
1021001010212210,
2010201020122110,
0022102200221000,
0022102200221000,
0022102200221000,
0022100202021000,
0022102200221000,
000000200200100000200200100000202010100000300000,
0010210210101010,
300000000000000000000000000000001010200200100000,
#GOGOSTART
1010201202102022,
1110222101121120,
1010201202102022,
1110210110103022,
1012012000102011,
1012012000102011,
1022102210221030,
2020201202122222,
1010201202102022,
1110222101121120,
1010201202102022,
1010210120122210,
1021021000112000,
1010202210122030,
0010211221122210,
#GOGOEND
20200030,
1010221202112002,
1010221202112210,
100222200100222100000700,
,
000000000000000000000000000000000000000000000008,
#END
COURSE:Hard
LEVEL:7
BALLOON:34
SCOREINIT:860
SCOREDIFF:260
#START
00000001,
0010210010002020,
01130030,
1002011100002000,
0110220100002000,
1002011100002000,
1001010300000000,
1000100100002000,
0010220100002000,
0010220100002000,
1000100300002000,
1000100100002000,
1010220100002200,
1021000010210000,
1001001020102100,
1001220100002000,
1010220100002000,
1010220100002000,
1001220100002000,
1001220100002000,
1010220100002200,
1021001010210010,
2000200020102220,
0022100000221000,
0022100000221000,
0022100000221000,
0022100020112000,
0022100000221000,
0022100010222030,
0010210010101010,
3000000000002220,//31
#GOGOSTART
1010200100102000,
1010200102102000,
1010200100102000,
11202121,
1011011000102000,
1011011000102000,
1011200010112040,
500000000000000000000008000000000000200200200000,
1010200100102000,
1010200102102000,
1010200100102000,
1010200020102210,
1001001000004000,
1000100010222030,
0010220222022220,//46
#GOGOEND
0003,
1010201200102000,
1010201200102000,
30030007,
,
,
8,
,
,
,
,
#END
COURSE:Normal
LEVEL:6
BALLOON:28
SCOREINIT:1210
SCOREDIFF:460
#START
00000001,
01101001,
00030000,
1001001100000000,
1001001100000000,
1001001100000000,
1000000300000000,
1000100100000000,
0010100100000000,
0010100100000000,
1000100100000000,
1000100100000000,
1000100100000000,
1001000010010000,
1001001010000000,
1000100100002000,
0010100100002000,
0010100100002000,
1000100100000000,
1000100100002000,
1000100100002000,
1001000010010000,
20202220,
0101,
0101,
0101,
0121,
0101,
00103004,
00101111,
1,//31
#GOGOSTART
1000110100000000,
1000110100000000,
1000110100000000,
1000110020002000,
1011001000000000,
1011001000000000,
1111,
500000000000000000000000000000000008000000000000,
1000110100000000,
1000110100000000,
1000110100000000,
1000110020002000,
1001001000000000,
10101015,
0000000000000000000000000000000000000000000000000000000000000008,//46
#GOGOEND
1000110100002000,
1000110100002000,
30030007,
,
,
8,
,
,
,
,
,
#END
COURSE:Easy
LEVEL:4
BALLOON:24
SCOREINIT:940
SCOREDIFF:493
#START
,
00000003,
00030000,
1001000000000000,
1001000000000000,
1001000000000000,
1000000300000000,
1000100100000000,
1000100100000000,
1000100100000000,
2000200200000000,
1000100100000000,
1000100100000000,
11,
1130,
1000100100000000,
1000100100000000,
1000100100000000,
2000200200000000,
1000100100000000,
1000100100000000,
11,
2222,
0101,
0101,
0101,
0101,
0101,
0000100030000500,
0000000000000000000000000000000000000000000000000000000000000008,
,//31
#GOGOSTART
1000100100000000,
1000100100000000,
1000100100000000,
2000200200000000,
5000000000000000000000000000000800000000000000003000000000000000,
5000000000000000000000000000000800000000000000003000000000000000,
1111,
5000000000000000000000000000000000000000000000080000000000000000,
1000100100000000,
1000100100000000,
1000100100000000,
2,
1001001000000000,
1000100010000500,
0000000000000000000000000000000000000000000000000000000000000008,//46
#GOGOEND
,
1000100100000000,
1000100100000000,
30300007,
,
,
08000000,
,
,
,
,
#END