update
This commit is contained in:
412
tja/135.tja
Normal file
412
tja/135.tja
Normal file
@@ -0,0 +1,412 @@
|
||||
//TJADB Project
|
||||
TITLE:A Cruel Angel's Thesis -New Audio-
|
||||
TITLEJA:残酷な天使のテーゼ -新曲-
|
||||
SUBTITLE:--Youko Takahashi/Neon Genesis Evangelion
|
||||
BPM:80
|
||||
WAVE:A Cruel Angels Thesis -New Audio-.ogg
|
||||
OFFSET:-5.041
|
||||
DEMOSTART:68.079
|
||||
|
||||
COURSE:Edit
|
||||
LEVEL:8
|
||||
SCOREINIT:740
|
||||
SCOREDIFF:208
|
||||
|
||||
|
||||
#START
|
||||
|
||||
|
||||
,
|
||||
#BPMCHANGE 79
|
||||
1000100010010010,
|
||||
#MEASURE 8/4
|
||||
#BPMCHANGE 76.7
|
||||
100000000000100000000000100000000000500000000000
|
||||
#BPMCHANGE 134
|
||||
000000000000000000000000000000000008000000000000,
|
||||
#MEASURE 4/4
|
||||
#BPMCHANGE 129
|
||||
1010210121012010,
|
||||
1010210121020000,
|
||||
1010210121012010,
|
||||
1010221030040000,
|
||||
1010201012102000,
|
||||
1010201012102000,
|
||||
1120212011202120,
|
||||
1120221010000000,
|
||||
1120201010222000,
|
||||
1120201010222000,
|
||||
1020102010222010,
|
||||
1020102022102210,
|
||||
1020102010221020,
|
||||
1020102010221020,
|
||||
1120221011202210,
|
||||
1120221010222000,
|
||||
1010221022221000,
|
||||
1010221022221000,
|
||||
1020122010201220,
|
||||
1101210121012102,
|
||||
1101102012022020,
|
||||
1120221011202210,
|
||||
1101201011012010,
|
||||
1212,
|
||||
1101102011011020,
|
||||
1220122011122020,
|
||||
1121102011211010,
|
||||
3000000030030030,
|
||||
|
||||
#GOGOSTART
|
||||
#SECTION
|
||||
#BRANCHSTART p,75,90
|
||||
#N
|
||||
3000300030003011,
|
||||
1011201110112020,
|
||||
3333,
|
||||
600000000000000000000000000000000008000000000000,
|
||||
3000300030001011,
|
||||
2010201120102022,
|
||||
1022102210221020,
|
||||
500000000000000000000000000000000008000000000000,
|
||||
3000300030003011,
|
||||
1011201110112020,
|
||||
3333,
|
||||
3030403030040000,
|
||||
|
||||
#E
|
||||
1020102010221020,
|
||||
1212102012020022,
|
||||
1020102210221020,
|
||||
1110221012120220,
|
||||
1020102210221020,
|
||||
1122201012020022,
|
||||
1020102010221020,
|
||||
3030303030040000,
|
||||
1020102210221020,
|
||||
1210221012120020,
|
||||
1020102210221020,
|
||||
3030403030040000,
|
||||
|
||||
#M
|
||||
1211201122021120,
|
||||
1211201122021120,
|
||||
1211201122021121,
|
||||
1210201211020112,
|
||||
1211201122021121,
|
||||
1211201122021121,
|
||||
1211201122021120,
|
||||
1121112110030012,
|
||||
1211201122021121,
|
||||
1211201122021121,
|
||||
1211201122021120,
|
||||
3030403030040000,
|
||||
|
||||
#BRANCHEND
|
||||
#GOGOEND
|
||||
|
||||
|
||||
#END
|
||||
|
||||
|
||||
COURSE:Oni
|
||||
LEVEL:7
|
||||
SCOREINIT:860
|
||||
SCOREDIFF:255
|
||||
|
||||
|
||||
#START
|
||||
|
||||
|
||||
,
|
||||
#BPMCHANGE 79
|
||||
1000100010010010,
|
||||
#MEASURE 8/4
|
||||
#BPMCHANGE 76.7
|
||||
100000000000100000000000100000000000500000000000
|
||||
#BPMCHANGE 134
|
||||
000000000000000000000000000000000008000000000000,
|
||||
#MEASURE 4/4
|
||||
#BPMCHANGE 129
|
||||
1000100102012022,
|
||||
1010202011010000,
|
||||
1000100102012022,
|
||||
1010201030030000,
|
||||
1000102010221010,
|
||||
1000102010221010,
|
||||
1022102010221010,
|
||||
1022102010222000,
|
||||
1002001011222000,
|
||||
1002001010112000,
|
||||
1001001010001000,
|
||||
10011000,
|
||||
1020102010221010,
|
||||
1020102010221010,
|
||||
1022102010221010,
|
||||
1022102010222000,
|
||||
1021021011222000,
|
||||
1021021010112000,
|
||||
1001001010010010,
|
||||
1334,
|
||||
1101201011012010,
|
||||
1101201012012020,
|
||||
1101201011012010,
|
||||
1212,
|
||||
1101201011012010,
|
||||
1101201011012020,
|
||||
1001002010010020,
|
||||
500000000000000008000000400000000400000000400000,
|
||||
|
||||
#GOGOSTART
|
||||
#SECTION
|
||||
#BRANCHSTART p,75,90
|
||||
#N
|
||||
1010201021012010,
|
||||
1011201021012020,
|
||||
1010201021012022,
|
||||
1010201011012222,
|
||||
1010201021012010,
|
||||
1011201021012020,
|
||||
1010201021012022,
|
||||
1010201030030022,
|
||||
1010201021012010,
|
||||
1011201021012020,
|
||||
1010201020221111,
|
||||
1010201030030000,
|
||||
|
||||
#E
|
||||
1010202112021120,
|
||||
1010201021012021,
|
||||
1010202112022110,
|
||||
1010201022020122,
|
||||
1010202112021120,
|
||||
1010201021012021,
|
||||
1010202112022110,
|
||||
1121112110010000,
|
||||
1010202112021120,
|
||||
1010201021012021,
|
||||
1010201020221110,
|
||||
3030403030030000,
|
||||
|
||||
#M
|
||||
1010201101102122,
|
||||
1010201121020220,
|
||||
1010201101102122,
|
||||
1010201121020122,
|
||||
1010201101102122,
|
||||
1010201121020220,
|
||||
1010201101102122,
|
||||
1010201030030022,
|
||||
1010201101102122,
|
||||
1010201121020220,
|
||||
1010201101102122,
|
||||
1010201030030000,
|
||||
|
||||
#BRANCHEND
|
||||
#GOGOEND
|
||||
|
||||
|
||||
#END
|
||||
|
||||
|
||||
COURSE:Hard
|
||||
LEVEL:6
|
||||
SCOREINIT:890
|
||||
SCOREDIFF:220
|
||||
|
||||
|
||||
#START
|
||||
|
||||
|
||||
1,
|
||||
#BPMCHANGE 79
|
||||
1000000010010010,
|
||||
#BPMCHANGE 76.7
|
||||
#MEASURE 8/4
|
||||
100000000000100000000000500000000000000000000000
|
||||
#BPMCHANGE 134
|
||||
000000000000000000000000000000000008000000000000,
|
||||
#MEASURE 4/4
|
||||
#BPMCHANGE 129
|
||||
1000100020020020,
|
||||
1010202011020000,
|
||||
1000100020020020,
|
||||
1010202030030000,
|
||||
1000201100102020,
|
||||
1002001010000010,
|
||||
1002002010020020,
|
||||
1002002010000011,
|
||||
1001001010002011,
|
||||
1001001010002011,
|
||||
1001001020002000,
|
||||
1000201010002022,
|
||||
1000201100102022,
|
||||
1002001110000010,
|
||||
1002002210020022,
|
||||
1002002010000011,
|
||||
1001001010202011,
|
||||
1001001010202011,
|
||||
1001001020020020,
|
||||
500000000000000000000000000000000008000000000000,
|
||||
1101101011011000,
|
||||
1101101010222000,
|
||||
1101101011011000,
|
||||
10201120,
|
||||
1101101011011000,
|
||||
1101101010222000,
|
||||
1011201011201020,
|
||||
1022200030030030,
|
||||
|
||||
#GOGOSTART
|
||||
1000200010010010,
|
||||
1010202011030000,
|
||||
1000200010010010,
|
||||
1010202011030000,
|
||||
1000200010010010,
|
||||
1010202011030000,
|
||||
1000200010010010,
|
||||
1010202030030000,
|
||||
1000200010010010,
|
||||
1010202011030000,
|
||||
1000200010010010,
|
||||
1010202030030000,
|
||||
|
||||
#GOGOEND
|
||||
|
||||
|
||||
#END
|
||||
|
||||
|
||||
COURSE:Normal
|
||||
LEVEL:4
|
||||
SCOREINIT:1310
|
||||
SCOREDIFF:420
|
||||
|
||||
|
||||
#START
|
||||
|
||||
|
||||
1,
|
||||
#BPMCHANGE 79
|
||||
1,
|
||||
#BPMCHANGE 76.7
|
||||
#MEASURE 8/4
|
||||
100000000000100000000000500000000000000000000000
|
||||
#BPMCHANGE 134
|
||||
000000000000000000000008000000000000000000000000,
|
||||
#MEASURE 4/4
|
||||
#BPMCHANGE 129
|
||||
1110,
|
||||
11102000,
|
||||
1110,
|
||||
1010100030030000,
|
||||
1120,
|
||||
1120,
|
||||
11,
|
||||
12,
|
||||
10011020,
|
||||
10022000,
|
||||
10011020,
|
||||
10022000,
|
||||
1120,
|
||||
1120,
|
||||
11,
|
||||
12,
|
||||
10011020,
|
||||
10022000,
|
||||
10011020,
|
||||
500000000000000000000000000008000000000000000000,
|
||||
1001000010000000,
|
||||
2002000020000000,
|
||||
1001000010000000,
|
||||
1,
|
||||
1001000010000000,
|
||||
2002000020000000,
|
||||
1001000010000000,
|
||||
500000000000000000000000000008000000000000000000,
|
||||
|
||||
#GOGOSTART
|
||||
1000100010010000,
|
||||
1000000020020000,
|
||||
1110,
|
||||
1000100020020000,
|
||||
1000100010010000,
|
||||
1000000020020000,
|
||||
1110,
|
||||
1000100030030000,
|
||||
1000100010010000,
|
||||
1000000020020000,
|
||||
1110,
|
||||
1000100030030000,
|
||||
|
||||
#GOGOEND
|
||||
|
||||
|
||||
#END
|
||||
|
||||
|
||||
COURSE:Easy
|
||||
LEVEL:4
|
||||
SCOREINIT:1000
|
||||
SCOREDIFF:380
|
||||
|
||||
|
||||
#START
|
||||
|
||||
|
||||
1,
|
||||
#BPMCHANGE 79
|
||||
1,
|
||||
#BPMCHANGE 76.7
|
||||
#MEASURE 8/4
|
||||
100000000000100000000000500000000000000000000000
|
||||
#BPMCHANGE 134
|
||||
000000000000000000000000000000000008000000000000,
|
||||
#MEASURE 4/4
|
||||
#BPMCHANGE 129
|
||||
12,
|
||||
1120,
|
||||
11,
|
||||
1000100030030000,
|
||||
11,
|
||||
12,
|
||||
11,
|
||||
12,
|
||||
10011000,
|
||||
10022000,
|
||||
1012,
|
||||
10022000,
|
||||
11,
|
||||
12,
|
||||
11,
|
||||
12,
|
||||
10011000,
|
||||
10022000,
|
||||
1111,
|
||||
500000000000000000000000000000000008000000000000,
|
||||
1001000000000000,
|
||||
2002000000000000,
|
||||
12,
|
||||
12,
|
||||
1001000000000000,
|
||||
2002000000000000,
|
||||
11,
|
||||
500000000000000000000000000000000008000000000000,
|
||||
|
||||
#GOGOSTART
|
||||
1110,
|
||||
1220,
|
||||
1110,
|
||||
1120,
|
||||
1110,
|
||||
1220,
|
||||
1110,
|
||||
1000000030030000,
|
||||
1110,
|
||||
1220,
|
||||
1110,
|
||||
1000000030030000,
|
||||
|
||||
#GOGOEND
|
||||
|
||||
|
||||
#END
|
||||
|
||||
Reference in New Issue
Block a user