update
This commit is contained in:
524
tja/1397.tja
Normal file
524
tja/1397.tja
Normal file
@@ -0,0 +1,524 @@
|
||||
//TJADB Project
|
||||
TITLE:S
|
||||
TITLEJA:S
|
||||
SUBTITLE:--SID/Sadako 3D
|
||||
BPM:212
|
||||
WAVE:S.ogg
|
||||
OFFSET:-2.649
|
||||
DEMOSTART:51.364
|
||||
|
||||
COURSE:Oni
|
||||
LEVEL:9
|
||||
BALLOON:5,7,5
|
||||
SCOREINIT:520
|
||||
SCOREDIFF:125
|
||||
|
||||
|
||||
#START
|
||||
|
||||
|
||||
#SCROLL 0.5
|
||||
#BARLINEOFF
|
||||
000000101010100100100100,
|
||||
#BARLINEON
|
||||
#MEASURE 8/4
|
||||
1011201102100000,
|
||||
1100201100000000,
|
||||
1011201102100000,
|
||||
1100201100000000,
|
||||
|
||||
#GOGOSTART
|
||||
#MEASURE 4/4
|
||||
#SCROLL 1
|
||||
3000111020201010,
|
||||
10210210,
|
||||
11221125,
|
||||
000000000000000000000000000000000008000000000000,
|
||||
3000111020201010,
|
||||
10210210,
|
||||
11221125,
|
||||
000000000000000000000000000000000008000000000000,
|
||||
|
||||
#GOGOEND
|
||||
11012012,
|
||||
00200021,
|
||||
11012015,
|
||||
000008000000200000500000000000000008000000000000,
|
||||
11012012,
|
||||
0011200000112010,
|
||||
11012015,
|
||||
000008000000200000500000000000000008000000100100,
|
||||
1010202010102011,
|
||||
1010201010102011,
|
||||
11221121,
|
||||
0011201000112010,
|
||||
0010202010102011,
|
||||
1010201010102011,
|
||||
11221121,
|
||||
0011201000112000,
|
||||
1010001010000011,
|
||||
11201100,
|
||||
11011022,
|
||||
0011102011102000,
|
||||
1010001010000011,
|
||||
11201100,
|
||||
11011022,
|
||||
0011102011102000,
|
||||
33044036,
|
||||
000000000000000000000000000000000008000000000000,
|
||||
|
||||
#GOGOSTART
|
||||
1010201120112012,
|
||||
1010201120112012,
|
||||
1010201120112012,
|
||||
1010201120007000,
|
||||
08500000,
|
||||
000000000000000000000008000000000000300000000000,
|
||||
30440303,
|
||||
0040004040002211,
|
||||
1010201120112012,
|
||||
1010201120112012,
|
||||
1010201120112012,
|
||||
1010201120005000,
|
||||
000008000000200000000000500000000000000000000000,
|
||||
000000000000000000000008000000000000300000300000,
|
||||
30440304,
|
||||
600000000000000008000000400000000000000000000000,
|
||||
|
||||
#GOGOEND
|
||||
#MEASURE 8/4
|
||||
#SCROLL 0.5
|
||||
3011120102102111,
|
||||
1011120102104000,
|
||||
3011120102102111,
|
||||
#MEASURE 10/4
|
||||
100000100100100200000100100010001000100010007000000000000800,
|
||||
#MEASURE 4/4
|
||||
#SCROLL 1
|
||||
30211201,
|
||||
02102111,
|
||||
10211201,
|
||||
000000200000500000000000000000000008000000000000,
|
||||
30211201,
|
||||
02102111,
|
||||
1111111111111111,
|
||||
2211221121112000,
|
||||
|
||||
#GOGOSTART
|
||||
1010201120112012,
|
||||
1010201120112012,
|
||||
1010201120112012,
|
||||
1010201120007000,
|
||||
000000800000500000000000000000000000000000000008,
|
||||
00000033,
|
||||
30440303,
|
||||
3040003040002211,
|
||||
1010201120112012,
|
||||
1010201120112012,
|
||||
1010201120112012,
|
||||
1010201120005000,
|
||||
000008000000200000000000500000000000000000000000,
|
||||
000000000000000000000008000000000000300000300000,
|
||||
30440303,
|
||||
2211221122112111,
|
||||
1010001020001110,
|
||||
1000201000201111,
|
||||
11221125,
|
||||
000000000000000000000000000000000008000000000000,
|
||||
1010001020001110,
|
||||
1000201000201111,
|
||||
11221125,
|
||||
000000000000000000000000000000000008000000300000,
|
||||
|
||||
#GOGOEND
|
||||
|
||||
|
||||
#END
|
||||
|
||||
|
||||
COURSE:Hard
|
||||
LEVEL:5
|
||||
BALLOON:6,12,12,6,6,6,12,12
|
||||
SCOREINIT:800
|
||||
SCOREDIFF:208
|
||||
|
||||
|
||||
#START
|
||||
|
||||
|
||||
|
||||
#BARLINEOFF
|
||||
#SCROLL 0.5
|
||||
,
|
||||
#BARLINEON
|
||||
#MEASURE 8/4
|
||||
11201200,
|
||||
110,
|
||||
11201200,
|
||||
110,
|
||||
|
||||
#GOGOSTART
|
||||
#MEASURE 4/4
|
||||
#SCROLL 1
|
||||
11102011,
|
||||
10210210,
|
||||
5,
|
||||
000000000000000000000008000000000000000000000000,
|
||||
11102011,
|
||||
10210210,
|
||||
5,
|
||||
000000000000000000000008000000000000000000000000,
|
||||
|
||||
#GOGOEND
|
||||
11102012,
|
||||
01210120,
|
||||
11102012,
|
||||
01210120,
|
||||
11102012,
|
||||
01210120,
|
||||
5,
|
||||
000000000000000000000008000000000000000000000000,
|
||||
10201021,
|
||||
01210120,
|
||||
10201021,
|
||||
01210121,
|
||||
01201021,
|
||||
01210120,
|
||||
5,
|
||||
000000000000000000000008000000000000000000000000,
|
||||
11011001,
|
||||
10201100,
|
||||
11011022,
|
||||
,
|
||||
11011001,
|
||||
10201100,
|
||||
11011022,
|
||||
,
|
||||
9,
|
||||
8,
|
||||
|
||||
#GOGOSTART
|
||||
10201120,
|
||||
10201120,
|
||||
10201120,
|
||||
1217,
|
||||
,
|
||||
8001,
|
||||
10110105,
|
||||
000000000000000008000000400000000000000000000000,
|
||||
10201120,
|
||||
10201120,
|
||||
10201120,
|
||||
1217,
|
||||
,
|
||||
80000011,
|
||||
10110101,
|
||||
500000000000000000000008000000000000000000000000,
|
||||
|
||||
#GOGOEND
|
||||
#MEASURE 8/4
|
||||
#SCROLL 0.5
|
||||
3,
|
||||
3004,
|
||||
3,
|
||||
#MEASURE 10/4
|
||||
30000000700000080000,
|
||||
#MEASURE 4/4
|
||||
#SCROLL 1
|
||||
30000101,
|
||||
01201020,
|
||||
9,
|
||||
8,
|
||||
30000101,
|
||||
01201020,
|
||||
9,
|
||||
8,
|
||||
|
||||
#GOGOSTART
|
||||
10201120,
|
||||
10201120,
|
||||
10201120,
|
||||
1217,
|
||||
,
|
||||
80000011,
|
||||
10110105,
|
||||
000000000000000008000000400000000000000000000000,
|
||||
10201120,
|
||||
10201120,
|
||||
10201120,
|
||||
1217,
|
||||
,
|
||||
80000011,
|
||||
10110101,
|
||||
500000000000000000000008000000000000000000000000,
|
||||
30012011,
|
||||
10210210,
|
||||
500000000000000000000000000000000000000008000000,
|
||||
,
|
||||
30012011,
|
||||
10210210,
|
||||
500000000000000000000000000000000000000008000000,
|
||||
00000003,
|
||||
|
||||
#GOGOEND
|
||||
|
||||
|
||||
#END
|
||||
|
||||
|
||||
COURSE:Normal
|
||||
LEVEL:4
|
||||
BALLOON:4,8,8,5,4,4,8,7
|
||||
SCOREINIT:1020
|
||||
SCOREDIFF:343
|
||||
|
||||
|
||||
#START
|
||||
|
||||
|
||||
#BARLINEOFF
|
||||
#SCROLL 0.5
|
||||
,
|
||||
#BARLINEON
|
||||
#MEASURE 8/4
|
||||
10101100,
|
||||
1,
|
||||
10101100,
|
||||
1,
|
||||
|
||||
#GOGOSTART
|
||||
#MEASURE 4/4
|
||||
#SCROLL 1
|
||||
11,
|
||||
12,
|
||||
5,
|
||||
000000000000000000000008000000000000000000000000,
|
||||
11,
|
||||
12,
|
||||
5,
|
||||
000000000000000000000008000000000000000000000000,
|
||||
|
||||
#GOGOEND
|
||||
1110,
|
||||
,
|
||||
1110,
|
||||
,
|
||||
1110,
|
||||
,
|
||||
5,
|
||||
000000000000000000000008000000000000000000000000,
|
||||
1110,
|
||||
12,
|
||||
1110,
|
||||
12,
|
||||
1110,
|
||||
12,
|
||||
5,
|
||||
000000000000000000000008000000000000000000000000,
|
||||
11,
|
||||
2011,
|
||||
11,
|
||||
,
|
||||
11,
|
||||
2011,
|
||||
11,
|
||||
,
|
||||
9,
|
||||
8,
|
||||
|
||||
#GOGOSTART
|
||||
1110,
|
||||
1122,
|
||||
0110,
|
||||
1127,
|
||||
,
|
||||
8,
|
||||
1110,
|
||||
11104000,
|
||||
1110,
|
||||
1122,
|
||||
0110,
|
||||
1127,
|
||||
,
|
||||
8,
|
||||
1110,
|
||||
500000000000000000000008000000000000000000000000,
|
||||
|
||||
#GOGOEND
|
||||
#MEASURE 8/4
|
||||
#SCROLL 0.5
|
||||
3,
|
||||
3004,
|
||||
3,
|
||||
#MEASURE 10/4
|
||||
30000000700000080000,
|
||||
#MEASURE 4/4
|
||||
#SCROLL 0.85
|
||||
3,
|
||||
1110,
|
||||
9,
|
||||
8,
|
||||
3,
|
||||
1110,
|
||||
9,
|
||||
8,
|
||||
|
||||
#GOGOSTART
|
||||
1120,
|
||||
1122,
|
||||
0110,
|
||||
1127,
|
||||
,
|
||||
8,
|
||||
1120,
|
||||
11104000,
|
||||
1110,
|
||||
1122,
|
||||
0110,
|
||||
1127,
|
||||
,
|
||||
8,
|
||||
1110,
|
||||
500000000000000000000008000000000000000000000000,
|
||||
1120,
|
||||
1120,
|
||||
500000000000000000000000000000000000000008000000,
|
||||
,
|
||||
1120,
|
||||
1120,
|
||||
500000000000000000000000000000000000000008000000,
|
||||
00000003,
|
||||
|
||||
#GOGOEND
|
||||
|
||||
|
||||
#END
|
||||
|
||||
|
||||
COURSE:Easy
|
||||
LEVEL:3
|
||||
BALLOON:4,7,7,4,4,4,7,7
|
||||
SCOREINIT:820
|
||||
SCOREDIFF:318
|
||||
|
||||
|
||||
#START
|
||||
|
||||
|
||||
#SCROLL 0.5
|
||||
#BARLINEOFF
|
||||
,
|
||||
#BARLINEON
|
||||
1110,
|
||||
1,
|
||||
1110,
|
||||
1,
|
||||
|
||||
#GOGOSTART
|
||||
#MEASURE 8/4
|
||||
#SCROLL 0.85
|
||||
1,
|
||||
1,
|
||||
5,
|
||||
000000000000000000000008000000000000000000000000,
|
||||
1,
|
||||
1,
|
||||
5,
|
||||
000000000000000000000008000000000000000000000000,
|
||||
|
||||
#GOGOEND
|
||||
11,
|
||||
,
|
||||
11,
|
||||
,
|
||||
11,
|
||||
,
|
||||
5,
|
||||
000000000000000000000008000000000000000000000000,
|
||||
11,
|
||||
02,
|
||||
11,
|
||||
02,
|
||||
11,
|
||||
02,
|
||||
5,
|
||||
000000000000000000000008000000000000000000000000,
|
||||
1,
|
||||
2,
|
||||
11,
|
||||
,
|
||||
1,
|
||||
2,
|
||||
11,
|
||||
,
|
||||
9,
|
||||
8,
|
||||
|
||||
#GOGOSTART
|
||||
11,
|
||||
1110,
|
||||
11,
|
||||
1117,
|
||||
,
|
||||
8,
|
||||
11,
|
||||
3330,
|
||||
11,
|
||||
1110,
|
||||
11,
|
||||
1117,
|
||||
,
|
||||
8,
|
||||
11,
|
||||
500000000000000000000008000000000000000000000000,
|
||||
|
||||
#GOGOEND
|
||||
#MEASURE 8/4
|
||||
#SCROLL 0.5
|
||||
3,
|
||||
3004,
|
||||
3,
|
||||
#MEASURE 10/4
|
||||
30000000700000080000,
|
||||
#MEASURE 4/4
|
||||
#SCROLL 0.85
|
||||
3,
|
||||
11,
|
||||
9,
|
||||
8,
|
||||
3,
|
||||
11,
|
||||
9,
|
||||
8,
|
||||
|
||||
#GOGOSTART
|
||||
11,
|
||||
1110,
|
||||
11,
|
||||
1117,
|
||||
,
|
||||
8,
|
||||
11,
|
||||
3330,
|
||||
11,
|
||||
1110,
|
||||
11,
|
||||
1117,
|
||||
,
|
||||
8,
|
||||
11,
|
||||
500000000000000000000008000000000000000000000000,
|
||||
12,
|
||||
12,
|
||||
500000000000000000000000000000000000000008000000,
|
||||
,
|
||||
12,
|
||||
12,
|
||||
500000000000000000000000000000000000000008000000,
|
||||
00000003,
|
||||
|
||||
#GOGOEND
|
||||
|
||||
|
||||
#END
|
||||
|
||||
Reference in New Issue
Block a user