update
This commit is contained in:
359
tja/151.tja
Normal file
359
tja/151.tja
Normal file
@@ -0,0 +1,359 @@
|
||||
//TJADB Project
|
||||
TITLE:Fantasy Zone OPA-OPA! -GMT Remix-
|
||||
TITLEJA:ファンタジーゾーン OPA-OPA! -GMT remix-
|
||||
SUBTITLE:--Hiro (SEGA)/Fantasy Zone
|
||||
SUBTITLEJA:Hiro(SEGA)「ファンタジーゾーン」
|
||||
BPM:142
|
||||
WAVE:Fantasy Zone OPA-OPA! -GMT Remix-.ogg
|
||||
OFFSET:-3.143
|
||||
DEMOSTART:33.556
|
||||
|
||||
COURSE:Oni
|
||||
LEVEL:7
|
||||
BALLOON:10,10
|
||||
SCOREINIT:550
|
||||
SCOREDIFF:140
|
||||
|
||||
|
||||
#START
|
||||
|
||||
|
||||
1001000010010000,
|
||||
2002000020020000,
|
||||
1001000010010000,
|
||||
2022222220200200,
|
||||
1001000010010000,
|
||||
2002000020020000,
|
||||
1001000010010000,
|
||||
3003003000000000,
|
||||
2022002022002022,
|
||||
1021010010020000,
|
||||
1020102010202222,
|
||||
1021010010100200,
|
||||
1020102010202222,
|
||||
1021010010020000,
|
||||
1020102010202222,
|
||||
1021010010100200,
|
||||
3003003003002222,
|
||||
7008,
|
||||
1002100010111200,
|
||||
100000200000100000000500000000008000000000200200,
|
||||
1002010010020100,
|
||||
1002002200101020,
|
||||
1002102220101020,
|
||||
1022102011111201,
|
||||
03430343,
|
||||
1000100030400400,
|
||||
1002100010101200,
|
||||
100000200000100000000500008000000200000200100000,
|
||||
1002010010020100,
|
||||
1002202000101020,
|
||||
1002102220101020,
|
||||
1022102011111201,
|
||||
03430343,
|
||||
100020002000100010001000100000300000000300000000,
|
||||
2010201120112011,
|
||||
2002000000111201,
|
||||
500000000000000000008000000000100100100200000100,
|
||||
5000000800211200,
|
||||
2010201120112011,
|
||||
2002000000111205,
|
||||
000000000000000000000000000000000000008000000000,
|
||||
1101110111011000,
|
||||
2011201120112011,
|
||||
2012002020111201,
|
||||
500000000000000000008000000000100100100200000100,
|
||||
500000000000000000008000000000200100100200000000,
|
||||
2211221122112211,
|
||||
2112002020111205,
|
||||
000000000000000000000000000000000000008000000000,
|
||||
1101110111011000,//50
|
||||
|
||||
#GOGOSTART
|
||||
1020112101011020,
|
||||
1020112101011020,
|
||||
1020112101011020,
|
||||
1020112022222222,
|
||||
1020112101011022,
|
||||
1020112101011022,
|
||||
1020112101011022,
|
||||
1020112022112211,//58
|
||||
|
||||
#GOGOEND
|
||||
7008,//59
|
||||
|
||||
#GOGOSTART
|
||||
1021010010210222,
|
||||
1021022210210222,
|
||||
1021010010210222,
|
||||
1021020022222222,
|
||||
1021012210210222,
|
||||
1021022210210222,
|
||||
1021012210210020,
|
||||
3003003003003000,//67
|
||||
|
||||
#GOGOEND
|
||||
200000200200000000200000200200000000101010100000,
|
||||
2022000030000000,
|
||||
|
||||
|
||||
#END
|
||||
|
||||
|
||||
COURSE:Hard
|
||||
LEVEL:7
|
||||
BALLOON:8,15,8
|
||||
|
||||
#START
|
||||
1001000010010000,
|
||||
2002000020020000,
|
||||
1001000010010000,
|
||||
2020202020200200,
|
||||
1001000010010000,
|
||||
2002000020020000,
|
||||
1001000010010000,
|
||||
3003003000000000,
|
||||
2022002022000000,
|
||||
1001010020020000,
|
||||
1020102010202220,
|
||||
1001010020200200,
|
||||
1020102010202220,
|
||||
1001010020020000,
|
||||
1020102010202220,
|
||||
1001010020200200,
|
||||
3003003003000000,
|
||||
7008,
|
||||
1000200010100200,
|
||||
1020100100000010,
|
||||
1002010010020100,
|
||||
1002000000101020,
|
||||
500000000000000008000000000000100000100000200000,
|
||||
1000200011101001,
|
||||
03400340,
|
||||
1000100030300300,
|
||||
1000200010100200,
|
||||
1020100100000010,
|
||||
1002010010020100,
|
||||
1002002000101020,
|
||||
500000000000000008000000000000100000100000200000,
|
||||
1000200011101001,
|
||||
03400340,
|
||||
1000100030300300,
|
||||
22222222,
|
||||
2002000000101101,
|
||||
000500000000000000008000000000100000100100000100,
|
||||
000500000000000000008000000000100000100100000000,
|
||||
22222222,
|
||||
2002000000101105,
|
||||
000000000000000000000000000000000000008000000000,
|
||||
1101010101011000,
|
||||
22222222,
|
||||
2002000000101101,
|
||||
000500000000000000008000000000100000100100000100,
|
||||
000500000000000000008000000000100000100100000000,
|
||||
21212121,
|
||||
2002000000101109,
|
||||
0009,
|
||||
8,//50
|
||||
|
||||
#GOGOSTART
|
||||
1010101101011000,
|
||||
1010101101011000,
|
||||
1010101101011000,
|
||||
1010101022202220,
|
||||
1010101101011000,
|
||||
1010101101011000,
|
||||
1010101101011000,
|
||||
1010101022202220,//58
|
||||
|
||||
#GOGOEND
|
||||
7008,//59
|
||||
|
||||
#GOGOSTART
|
||||
1001010010010040,
|
||||
1001004010010040,
|
||||
1001010010010040,
|
||||
1001004022202220,
|
||||
1001010010010040,
|
||||
1001004010010040,
|
||||
1001010010010040,
|
||||
3003003003003000,//67
|
||||
|
||||
#GOGOEND
|
||||
2022002022000000,
|
||||
2022000030000000,
|
||||
,
|
||||
,
|
||||
#END
|
||||
|
||||
COURSE:Normal
|
||||
LEVEL:6
|
||||
BALLOON:8,10
|
||||
|
||||
#START
|
||||
1001000010010000,
|
||||
,
|
||||
1001000010010000,
|
||||
0000000040400400,
|
||||
1001000010010000,
|
||||
,
|
||||
1001000010010000,
|
||||
3003003000000000,
|
||||
40040040,
|
||||
1001000010010000,
|
||||
4444,
|
||||
1001000010100000,
|
||||
4444,
|
||||
1001000010010000,
|
||||
4444,
|
||||
1001000010100000,
|
||||
3003003003000000,
|
||||
500000000000000000000000000000000008000000000000,
|
||||
10101100,
|
||||
2000200200000010,
|
||||
1001000020020010,
|
||||
100000000500000000000000000008000000000000000000,
|
||||
500000000000000000000000000008000000000000000000,
|
||||
20201110,
|
||||
3232,
|
||||
1000100030300300,
|
||||
10101100,
|
||||
2000200200000010,
|
||||
1001000020020000,
|
||||
100000000500000000008000000000000000000000000000,
|
||||
500000000000000000000000000008000000000000000000,
|
||||
10102220,
|
||||
3232,
|
||||
1000100030300300,
|
||||
1212,
|
||||
1002000000101005,
|
||||
000000000000000000008000000000100000100000000500,
|
||||
000000000000000000000000008000000000000000000000,
|
||||
1212,
|
||||
1002000000101009,
|
||||
0009,
|
||||
8,
|
||||
1212,
|
||||
1002000000101005,
|
||||
000000000000008000000000000000100000100000000500,
|
||||
000000000000000000000000000000008000000000000000,
|
||||
1212,
|
||||
1002000000101009,
|
||||
0009,
|
||||
8,//50
|
||||
|
||||
#GOGOSTART
|
||||
1010100100000000,
|
||||
1010100100000000,
|
||||
1010100100000000,
|
||||
11104040,
|
||||
1010100100002000,
|
||||
1010100100002000,
|
||||
1010100100002000,
|
||||
11104040,//58
|
||||
|
||||
#GOGOEND
|
||||
3,//59
|
||||
|
||||
#GOGOSTART
|
||||
1001000020020000,
|
||||
1001000020020000,
|
||||
1001000020020000,
|
||||
1001000040404040,
|
||||
1001000020020000,
|
||||
1001000020020000,
|
||||
1001000020020000,
|
||||
3003003003003000,//67
|
||||
|
||||
#GOGOEND
|
||||
20020040,
|
||||
33,
|
||||
,
|
||||
,
|
||||
#END
|
||||
|
||||
COURSE:Easy
|
||||
LEVEL:4
|
||||
BALLOON:5,8
|
||||
|
||||
#START
|
||||
12,
|
||||
3,
|
||||
12,
|
||||
3330,
|
||||
12,
|
||||
3,
|
||||
12,
|
||||
30030000,
|
||||
40040040,
|
||||
1000000010010000,
|
||||
4,
|
||||
10001100,
|
||||
4,
|
||||
1000000010010000,
|
||||
4,
|
||||
10001100,
|
||||
30030030,
|
||||
500000000000000000000000000008000000000000000000,
|
||||
1110,
|
||||
2000200200000000,
|
||||
12,
|
||||
100000000500000000008000000000000000000000000000,
|
||||
500000000000000000000000000008000000000000000000,
|
||||
2211,
|
||||
33,
|
||||
1130,
|
||||
1110,
|
||||
2000200200000000,
|
||||
12,
|
||||
100000000500000000008000000000000000000000000000,
|
||||
500000000000000000000000000008000000000000000000,
|
||||
1122,
|
||||
33,
|
||||
1130,
|
||||
1122,
|
||||
1001000000001005,
|
||||
000000000000000000000008000000000000100000000500,
|
||||
000000000000000000000000008000000000000000000000,
|
||||
1122,
|
||||
1001000000001009,
|
||||
0009,
|
||||
8,
|
||||
1122,
|
||||
1001000000001005,
|
||||
000000000000000000000008000000000000100000000500,
|
||||
000000000000000000000000008000000000000000000000,
|
||||
1122,
|
||||
1001000000001009,
|
||||
0009,
|
||||
8,//50
|
||||
|
||||
#GOGOSTART
|
||||
10001001000000000,
|
||||
10001001000000000,
|
||||
10001001000000000,
|
||||
1144,
|
||||
10001001000000000,
|
||||
10001001000000000,
|
||||
10001001000000000,
|
||||
1144,//58
|
||||
|
||||
#GOGOEND
|
||||
3,//59
|
||||
|
||||
#GOGOSTART
|
||||
1000000010010000,
|
||||
1001000010010000,
|
||||
1000000010010000,
|
||||
1001000040004000,
|
||||
1000000010010000,
|
||||
1001000010010000,
|
||||
1000000010010000,
|
||||
30030030,//67
|
||||
|
||||
#GOGOEND
|
||||
0004,
|
||||
33,
|
||||
,
|
||||
,
|
||||
#END
|
||||
Reference in New Issue
Block a user