update
This commit is contained in:
511
tja/159.tja
Normal file
511
tja/159.tja
Normal file
@@ -0,0 +1,511 @@
|
||||
//TJADB Project
|
||||
TITLE:Wings of Tomorrow -Tatsujin Mix-
|
||||
TITLEJA:Wings of Tomorrow (Tatsujin Mix)
|
||||
SUBTITLE:--Go Shiina/GOD EATER 2 RAGE BURST
|
||||
BPM:160
|
||||
WAVE:Wings of Tomorrow -Tatsujin Mix-.ogg
|
||||
OFFSET:-1.954
|
||||
DEMOSTART:38.688
|
||||
|
||||
COURSE:Oni
|
||||
LEVEL:9
|
||||
SCOREINIT:380
|
||||
SCOREDIFF:90
|
||||
|
||||
|
||||
#START
|
||||
|
||||
|
||||
1202,
|
||||
0202,
|
||||
00200021,
|
||||
11000221,
|
||||
10101011,
|
||||
1000100010001011,
|
||||
10101012,
|
||||
1020201120112210,
|
||||
1011201000102011,
|
||||
1011201000102011,
|
||||
1011201010202011,
|
||||
1020102010221120,
|
||||
1011201000102011,
|
||||
1011201000102011,
|
||||
1011201010202011,
|
||||
1020010010022210,
|
||||
10112102,
|
||||
0020001020112210,
|
||||
10112102,
|
||||
0020001020122210,
|
||||
10112102,
|
||||
0020001020112210,
|
||||
1110201110201020,
|
||||
#BPMCHANGE 161.6
|
||||
03333333,
|
||||
#BPMCHANGE 158.43
|
||||
0034,//25
|
||||
|
||||
#GOGOSTART
|
||||
#BPMCHANGE 160
|
||||
3011202212102011,
|
||||
1011202212112022,
|
||||
1011202212102011,
|
||||
1022102210202212,
|
||||
1011202212102022,
|
||||
1011202212112011,
|
||||
1011202212102022,
|
||||
1022102210202211,
|
||||
1000101020002022,
|
||||
12112022,
|
||||
1000101020002022,
|
||||
12112022,
|
||||
1000101020002022,
|
||||
12112022,
|
||||
1000101020002022,
|
||||
#BPMCHANGE 161.18
|
||||
1020101020101110,//41
|
||||
|
||||
#GOGOEND
|
||||
#BPMCHANGE 159.9
|
||||
3,//42
|
||||
|
||||
#GOGOSTART
|
||||
#BPMCHANGE 158.93
|
||||
2010201120102010,
|
||||
#BPMCHANGE 160
|
||||
2010201120102010,
|
||||
2010201120102010,
|
||||
2010201120112010,
|
||||
1020221122112212,
|
||||
1122221122112212,
|
||||
100000202020202020202020200200100100200200100100,
|
||||
101010202020101010202020200200100100200200100100,//50
|
||||
|
||||
#GOGOEND
|
||||
10102011,
|
||||
1010111012011112,
|
||||
1120112020102211,
|
||||
2112001000000000,//54
|
||||
|
||||
#GOGOSTART
|
||||
1000201010202212,
|
||||
1010221110202212,
|
||||
1121021022120212,
|
||||
1121021020102210,//58
|
||||
|
||||
#GOGOEND
|
||||
#BPMCHANGE 159.54
|
||||
100222200222,
|
||||
#BPMCHANGE 159.78
|
||||
200200200000202020202020,
|
||||
#BPMCHANGE 160.68
|
||||
200222200222,
|
||||
#BPMCHANGE 160
|
||||
200200200000202020202020,
|
||||
200222200222,
|
||||
200200200000202020202020,
|
||||
200222200222,
|
||||
#BPMCHANGE 160.81
|
||||
20444444,
|
||||
#BPMCHANGE 159.2
|
||||
0034,//67
|
||||
|
||||
#GOGOSTART
|
||||
#BPMCHANGE 160
|
||||
3011201112112011,
|
||||
1011201112112022,
|
||||
1011201112112011,
|
||||
1022102210202212,
|
||||
1011201112112011,
|
||||
1011201112112022,
|
||||
1011201112112011,
|
||||
1020202210221222,
|
||||
1000101020020010,
|
||||
1021001020102210,
|
||||
10112022,
|
||||
1021001020102210,
|
||||
1000200210102010,
|
||||
1012121120010010,
|
||||
10112221,
|
||||
#BPMCHANGE 160.43
|
||||
1021001022222222,//83
|
||||
|
||||
#GOGOEND
|
||||
#BPMCHANGE 161.26
|
||||
00000336,
|
||||
#BPMCHANGE 156.87
|
||||
,
|
||||
#BPMCHANGE 160.4
|
||||
000000000000000000000000000000000000000000000008,
|
||||
#BPMCHANGE 160.64
|
||||
,
|
||||
#BPMCHANGE 160.56
|
||||
,
|
||||
#BPMCHANGE 160
|
||||
33,
|
||||
33003000,
|
||||
#BPMCHANGE 160.79
|
||||
33,
|
||||
33003003,
|
||||
|
||||
#BPMCHANGE 160
|
||||
|
||||
|
||||
#END
|
||||
|
||||
|
||||
COURSE:Hard
|
||||
LEVEL:6
|
||||
BALLOON:8,8,11
|
||||
SCOREINIT:410
|
||||
SCOREDIFF:90
|
||||
|
||||
#START
|
||||
1202,
|
||||
0202,
|
||||
00200021,
|
||||
11000221,
|
||||
1111,
|
||||
10101011,
|
||||
10101012,
|
||||
1020100020101110,
|
||||
1011101000111010,
|
||||
0011101000111010,
|
||||
0010201010202011,
|
||||
12020222,
|
||||
1011101000111010,
|
||||
0011101000111010,
|
||||
01211225,
|
||||
000000000000000000000008000000000000000000000000,
|
||||
10112102,
|
||||
02012100,
|
||||
10112102,
|
||||
02012110,
|
||||
10112102,
|
||||
02012100,
|
||||
1000201110200020,
|
||||
03333333,
|
||||
0034,//25
|
||||
|
||||
#GOGOSTART
|
||||
3011100010111010,
|
||||
1011100010111000,
|
||||
1011100010111010,
|
||||
1011101110111000,
|
||||
1011100010111010,
|
||||
1011100010111000,
|
||||
1011100010111010,
|
||||
1011101110111000,
|
||||
10102022,
|
||||
12112022,
|
||||
10102022,
|
||||
3344,
|
||||
10102022,
|
||||
12112022,
|
||||
10102022,
|
||||
100000200000100000500000000000000008000000000000,//41
|
||||
|
||||
#GOGOEND
|
||||
30000336,//42
|
||||
|
||||
#GOGOSTART
|
||||
,
|
||||
000000000000000000000000000000000000000000000008,
|
||||
,
|
||||
,
|
||||
7008,
|
||||
7008,
|
||||
7,
|
||||
8,//50
|
||||
|
||||
#GOGOEND
|
||||
10102011,
|
||||
1010111011011011,
|
||||
1010111010101010,
|
||||
1001001000000000,//54
|
||||
|
||||
#GOGOSTART
|
||||
10211021,
|
||||
1010111010011010,
|
||||
1010111011011011,
|
||||
1010111010011010,//58
|
||||
|
||||
#GOGOEND
|
||||
100222200222,
|
||||
200200222222,
|
||||
200222200222,
|
||||
200200222222,
|
||||
200222200222,
|
||||
200200222222,
|
||||
200222200222,
|
||||
20444444,
|
||||
0034,//67
|
||||
|
||||
#GOGOSTART
|
||||
3011100010111010,
|
||||
1011100010111000,
|
||||
1011100010111010,
|
||||
1011101110111000,
|
||||
1011100010111010,
|
||||
1011100010111000,
|
||||
1011100010111010,
|
||||
1011101110111000,
|
||||
10102022,
|
||||
12112022,
|
||||
10102022,
|
||||
3344,
|
||||
10102022,
|
||||
12112022,
|
||||
10102022,
|
||||
100000000000100000500000000000000000000000000008,//83
|
||||
|
||||
#GOGOEND
|
||||
00000336,
|
||||
,
|
||||
000000000000000000000000000000000000000000000008,
|
||||
,
|
||||
,
|
||||
33,
|
||||
33003000,
|
||||
33,
|
||||
33003003,
|
||||
,
|
||||
,
|
||||
#END
|
||||
|
||||
COURSE:Normal
|
||||
LEVEL:6
|
||||
BALLOON:6,6,6,9
|
||||
SCOREINIT:600
|
||||
SCOREDIFF:120
|
||||
|
||||
#START
|
||||
1202,
|
||||
0202,
|
||||
0202,
|
||||
1,
|
||||
1111,
|
||||
10101011,
|
||||
1111,
|
||||
11101111,
|
||||
10110111,
|
||||
01110115,
|
||||
000000000008000000000000100000000000200000100000,
|
||||
01010110,
|
||||
10110111,
|
||||
01110115,
|
||||
000000000008000000000000100000000000200000500000,
|
||||
000000000000000000000008000000000000000000000000,
|
||||
10102002,
|
||||
02012000,
|
||||
10102002,
|
||||
02012010,
|
||||
10102002,
|
||||
02012000,
|
||||
10210101,
|
||||
0010109000000900,
|
||||
8,//25
|
||||
|
||||
#GOGOSTART
|
||||
10101110,
|
||||
11101110,
|
||||
10101110,
|
||||
11101111,
|
||||
10101110,
|
||||
11101110,
|
||||
10101110,
|
||||
11101111,
|
||||
1120,
|
||||
10112000,
|
||||
1120,
|
||||
3344,
|
||||
1120,
|
||||
10112000,
|
||||
1120,
|
||||
100000000000100000500000000000000000000000000008,//41
|
||||
|
||||
#GOGOEND
|
||||
00000336,//42
|
||||
|
||||
#GOGOSTART
|
||||
,
|
||||
000000000000000000000000000000000000000000000008,
|
||||
,
|
||||
,
|
||||
7008,
|
||||
7008,
|
||||
7,
|
||||
8,//50
|
||||
|
||||
#GOGOEND
|
||||
1120,
|
||||
11012000,
|
||||
11012010,
|
||||
11010000,//54
|
||||
|
||||
#GOGOSTART
|
||||
1121,
|
||||
11012010,
|
||||
11012011,
|
||||
11012010,//58
|
||||
|
||||
#GOGOEND
|
||||
11,
|
||||
1,
|
||||
12,
|
||||
2,
|
||||
11,
|
||||
1,
|
||||
12,
|
||||
20220222,
|
||||
,//67
|
||||
|
||||
#GOGOSTART
|
||||
10101110,
|
||||
11101110,
|
||||
10101110,
|
||||
11101111,
|
||||
10101110,
|
||||
11101110,
|
||||
10101110,
|
||||
11101111,
|
||||
1120,
|
||||
10112000,
|
||||
1120,
|
||||
3344,
|
||||
1120,
|
||||
10112000,
|
||||
1120,
|
||||
100000000000100000500000000000000000000000000008,//83
|
||||
|
||||
#GOGOEND
|
||||
00000336,
|
||||
,
|
||||
000000000000000000000000000000000000000000000008,
|
||||
,
|
||||
,
|
||||
33,
|
||||
33003000,
|
||||
33,
|
||||
33003003,
|
||||
,
|
||||
,
|
||||
#END
|
||||
|
||||
COURSE:Easy
|
||||
LEVEL:4
|
||||
BALLOON:5,5,5,6
|
||||
SCOREINIT:420
|
||||
SCOREDIFF:90
|
||||
|
||||
#START
|
||||
1202,
|
||||
0202,
|
||||
0202,
|
||||
1,
|
||||
11,
|
||||
11,
|
||||
1111,
|
||||
10101110,
|
||||
1110,
|
||||
1110,
|
||||
1115,
|
||||
000000000000000000000008000000000000000000000000,
|
||||
1110,
|
||||
1110,
|
||||
1115,
|
||||
000000000000000000000008000000000000000000000000,
|
||||
1120,
|
||||
10012000,
|
||||
1120,
|
||||
10012000,
|
||||
1120,
|
||||
10012000,
|
||||
1110,
|
||||
1000109000000900,
|
||||
8,//25
|
||||
|
||||
#GOGOSTART
|
||||
1110,
|
||||
11101000,
|
||||
1110,
|
||||
11101010,
|
||||
1110,
|
||||
11101000,
|
||||
1110,
|
||||
11101010,
|
||||
12,
|
||||
1120,
|
||||
12,
|
||||
3344,
|
||||
12,
|
||||
1120,
|
||||
12,
|
||||
100000000000100000500000000000000000000000000008,//41
|
||||
|
||||
#GOGOEND
|
||||
00000600,//42
|
||||
|
||||
#GOGOSTART
|
||||
,
|
||||
000000000000000000000000000000000000000000000008,
|
||||
,
|
||||
,
|
||||
7008,
|
||||
7008,
|
||||
7,
|
||||
8,//50
|
||||
|
||||
#GOGOEND
|
||||
1121,
|
||||
11102000,
|
||||
1121,
|
||||
10010000,//54
|
||||
|
||||
#GOGOSTART
|
||||
1121,
|
||||
11102000,
|
||||
1121,
|
||||
11102010,//58
|
||||
|
||||
#GOGOEND
|
||||
11,
|
||||
1,
|
||||
11,
|
||||
2,
|
||||
11,
|
||||
1,
|
||||
11,
|
||||
500000000000000000000000000000000000000000000008,
|
||||
,//67
|
||||
|
||||
#GOGOSTART
|
||||
1110,
|
||||
11101000,
|
||||
1110,
|
||||
11101010,
|
||||
1110,
|
||||
11101000,
|
||||
1110,
|
||||
11101010,
|
||||
12,
|
||||
1120,
|
||||
12,
|
||||
3344,
|
||||
12,
|
||||
1120,
|
||||
12,
|
||||
100000000000100000500000000000000000000000000008,//83
|
||||
|
||||
#GOGOEND
|
||||
00000600,
|
||||
,
|
||||
000000000000000000000008,
|
||||
,
|
||||
,
|
||||
33,
|
||||
33,
|
||||
33,
|
||||
30003003,
|
||||
,
|
||||
,
|
||||
#END
|
||||
Reference in New Issue
Block a user