update
This commit is contained in:
424
tja/182.tja
Normal file
424
tja/182.tja
Normal file
@@ -0,0 +1,424 @@
|
||||
//TJADB Project
|
||||
TITLE:Hello! Halloween
|
||||
TITLEJA:ハロー!ハロウィン
|
||||
SUBTITLE:--Masako Oogami feat. Shogo Nakamura
|
||||
BPM:134
|
||||
WAVE:Hello! Halloween.ogg
|
||||
OFFSET:-2.005
|
||||
DEMOSTART:48.540
|
||||
|
||||
COURSE:Oni
|
||||
LEVEL:8
|
||||
BALLOON:15,13,66,66,7,66
|
||||
SCOREINIT:500
|
||||
SCOREDIFF:110
|
||||
|
||||
|
||||
#START
|
||||
|
||||
|
||||
2120,
|
||||
2222222010002000,
|
||||
2000100020000000,
|
||||
2220222210000000,
|
||||
7008,
|
||||
2211221122112020,
|
||||
1022102011201020,
|
||||
1022102011201020,
|
||||
1022102011201020,
|
||||
1022102022102000,
|
||||
1022102012201022,
|
||||
1022102012201022,
|
||||
1022102012201020,
|
||||
1021102022102000,
|
||||
2222122220201020,
|
||||
2222122220201020,
|
||||
2212202020211120,
|
||||
2212202010221000,
|
||||
1122112211201020,
|
||||
2211221122102010,
|
||||
1122112220222020,
|
||||
1122112220111030,
|
||||
3022203030003030,
|
||||
600000000000000000000000000000000008000000000000,
|
||||
1122202211222020,
|
||||
1202101202104000,
|
||||
|
||||
#GOGOSTART
|
||||
1021012010210120,
|
||||
1212122210220210,
|
||||
1021012010210120,
|
||||
#MEASURE 3/4
|
||||
212121112000,
|
||||
#BARLINEOFF
|
||||
#MEASURE 4/4
|
||||
2021012020210120,
|
||||
#BARLINEON
|
||||
1212122210220210,
|
||||
2021012020210120,
|
||||
2022021010303000,
|
||||
|
||||
#GOGOEND
|
||||
2022202222200022,
|
||||
2022202222200022,
|
||||
2022202222200022,
|
||||
1220202212202010,
|
||||
2000001110002011,
|
||||
1000201110201120,
|
||||
1020102210211020,
|
||||
1020102210111010,
|
||||
1021102012201012,
|
||||
1021102012201012,
|
||||
1021102011201000,
|
||||
30443044,
|
||||
#MEASURE 4/4
|
||||
600000000000000000000008000000000000400000000000,
|
||||
#BPMCHANGE 140
|
||||
#MEASURE 2/4
|
||||
,
|
||||
|
||||
#GOGOSTART
|
||||
#BARLINEOFF
|
||||
#MEASURE 4/4
|
||||
1021012010210120,
|
||||
#BARLINEON
|
||||
1212122212221000,
|
||||
1021012010210120,
|
||||
#MEASURE 7/4
|
||||
2121211120002021
|
||||
#SCROLL 1.8
|
||||
020102221122,
|
||||
#MEASURE 4/4
|
||||
1212122210220210,
|
||||
2021012020210120,
|
||||
#BPMCHANGE 146
|
||||
#SCROLL 2
|
||||
7008,
|
||||
2222201022122210,
|
||||
2222201022122210,
|
||||
#SECTION
|
||||
3043303043303043,
|
||||
3030433030403040,
|
||||
|
||||
#GOGOEND
|
||||
#BRANCHSTART p,50,90
|
||||
#N
|
||||
#SCROLL 4
|
||||
7,
|
||||
#SCROLL 6
|
||||
,
|
||||
#SCROLL 8
|
||||
#BARLINEOFF
|
||||
,
|
||||
#BARLINEON
|
||||
0000008000004433,
|
||||
3,
|
||||
|
||||
#E
|
||||
#SCROLL 4
|
||||
7,
|
||||
#SCROLL 6
|
||||
,
|
||||
#SCROLL 8
|
||||
#BARLINEOFF
|
||||
,
|
||||
#BARLINEON
|
||||
00080070,
|
||||
8,
|
||||
|
||||
#M
|
||||
#SCROLL 4
|
||||
7,
|
||||
#SCROLL 6
|
||||
,
|
||||
#SCROLL 8
|
||||
#BARLINEOFF
|
||||
,
|
||||
#BARLINEON
|
||||
000000000800000000433433,
|
||||
3,
|
||||
|
||||
|
||||
#END
|
||||
|
||||
|
||||
COURSE:Hard
|
||||
LEVEL:6
|
||||
BALLOON:10,10,40
|
||||
SCOREINIT:580
|
||||
SCOREDIFF:150
|
||||
|
||||
|
||||
#START
|
||||
|
||||
|
||||
2120,
|
||||
2220222020000000,
|
||||
2120,
|
||||
2022202220000000,
|
||||
7000000000000800,
|
||||
2011101101101000,
|
||||
12121202,
|
||||
12121202,
|
||||
12121202,
|
||||
1011102011102000,
|
||||
12121202,
|
||||
12121202,
|
||||
12121202,
|
||||
1011102011102000,
|
||||
1022202010200000,
|
||||
1022202010200000,
|
||||
1022202220202000,
|
||||
1022202220000000,
|
||||
1020102022201000,
|
||||
1020102022201000,
|
||||
1020102022201000,
|
||||
1022202010000030,
|
||||
30003033,
|
||||
6000000000000000000000000000000000000000000000080000000000000000,
|
||||
1022202020001010,
|
||||
2202202202204000,//27
|
||||
|
||||
#GOGOSTART
|
||||
1022022010220220,
|
||||
3330,
|
||||
1022022010220220,
|
||||
#MEASURE 3/4
|
||||
121210,
|
||||
#MEASURE 4/4
|
||||
2022022020220220,
|
||||
3330,
|
||||
2022022020220220,
|
||||
6000000000000000000000080000000000000000300000003000000000000000,//34
|
||||
|
||||
#GOGOEND
|
||||
2020202020200022,
|
||||
2020202020200022,
|
||||
22222200,
|
||||
1212,
|
||||
1000001110000011,
|
||||
1000001110001000,
|
||||
1020202220200020,
|
||||
1020202220201000,
|
||||
1020102010200022,
|
||||
1020102010200022,
|
||||
1020102210201000,
|
||||
30333033,
|
||||
6000000000000000000000000000000800000000000000004000000000000000,
|
||||
#MEASURE 2/4
|
||||
,//48
|
||||
#MEASURE 4/4
|
||||
#GOGOSTART
|
||||
#BPMCHANGE 140
|
||||
1022022010220220,
|
||||
3330,
|
||||
1022022010220220,
|
||||
#MEASURE 3/4
|
||||
121210,
|
||||
#MEASURE 4/4
|
||||
#SCROLL 1.3
|
||||
2022020202202020,
|
||||
12121000,
|
||||
2022022020220220,
|
||||
#BPMCHANGE 146
|
||||
7000000000000800,
|
||||
22220212,
|
||||
22210210,
|
||||
34034034,
|
||||
03403333,//59
|
||||
|
||||
#GOGOEND
|
||||
#SCROLL 2
|
||||
7,
|
||||
,
|
||||
,
|
||||
#SCROLL 1
|
||||
8003,
|
||||
3,
|
||||
,
|
||||
,
|
||||
#END
|
||||
|
||||
COURSE:Normal
|
||||
LEVEL:2
|
||||
BALLOON:10,3,3,5,20
|
||||
SCOREINIT:810
|
||||
SCOREDIFF:283
|
||||
|
||||
#START
|
||||
22,
|
||||
2220,
|
||||
22,
|
||||
2220,
|
||||
9009,
|
||||
8,
|
||||
11,
|
||||
1110,
|
||||
11,
|
||||
1011,
|
||||
11,
|
||||
1110,
|
||||
11,
|
||||
1011,
|
||||
12,
|
||||
12,
|
||||
12,
|
||||
1120,
|
||||
22,
|
||||
2220,
|
||||
22,
|
||||
2220,
|
||||
3033,
|
||||
6000000000000000000000000000000000000000000800000000000000000000,
|
||||
1011,
|
||||
5000000000000000000000000000000000000000000800000000000000000000,//27
|
||||
|
||||
#GOGOSTART
|
||||
1212,
|
||||
3330,
|
||||
1212,
|
||||
#MEASURE 3/4
|
||||
78,
|
||||
#MEASURE 4/4
|
||||
2121,
|
||||
3330,
|
||||
2121,
|
||||
6000000000000000000000080000000000000000300000003000000000000000,//34
|
||||
|
||||
#GOGOEND
|
||||
2,
|
||||
2,
|
||||
22,
|
||||
2022,
|
||||
22,
|
||||
2022,
|
||||
12,
|
||||
1120,
|
||||
11,
|
||||
1110,
|
||||
11,
|
||||
1011,
|
||||
5000000000000000000000000000000800000000000000004000000000000000,
|
||||
#MEASURE 2/4
|
||||
,//48
|
||||
|
||||
#MEASURE 4/4
|
||||
#GOGOSTART
|
||||
#BPMCHANGE 140
|
||||
1212,
|
||||
3330,
|
||||
1212,
|
||||
#MEASURE 3/4
|
||||
78,
|
||||
#MEASURE 4/4
|
||||
2121,
|
||||
4440,
|
||||
1212,
|
||||
#BPMCHANGE 146
|
||||
7008,
|
||||
1202,
|
||||
1222,
|
||||
1212,
|
||||
1233,//59
|
||||
|
||||
#GOGOEND
|
||||
9,
|
||||
,
|
||||
09,
|
||||
8003,
|
||||
3,
|
||||
,
|
||||
,
|
||||
#END
|
||||
|
||||
COURSE:Easy
|
||||
LEVEL:3
|
||||
BALLOON:6,2,8,2,3,15
|
||||
SCOREINIT:830
|
||||
SCOREDIFF:410
|
||||
|
||||
#START
|
||||
22,
|
||||
2,
|
||||
22,
|
||||
2,
|
||||
9009,
|
||||
8,
|
||||
11,
|
||||
11,
|
||||
11,
|
||||
1110,
|
||||
11,
|
||||
11,
|
||||
11,
|
||||
1110,
|
||||
2,
|
||||
2,
|
||||
22,
|
||||
2220,
|
||||
12,
|
||||
12,
|
||||
12,
|
||||
1110,
|
||||
33,
|
||||
6000000000000000000000000000000000000008000000000000000000000000,
|
||||
11,
|
||||
5000000000000000000000000000000000000008000000000000000000000000,//27
|
||||
|
||||
#GOGOSTART
|
||||
11,
|
||||
3330,
|
||||
11,
|
||||
#MEASURE 3/4
|
||||
78,
|
||||
#MEASURE 4/4
|
||||
22,
|
||||
3330,
|
||||
11,
|
||||
6000000000000000000000080000000000000000000000003000000000000000,//34
|
||||
|
||||
#GOGOEND
|
||||
,
|
||||
,
|
||||
,
|
||||
,
|
||||
7,
|
||||
8,
|
||||
11,
|
||||
1110,
|
||||
11,
|
||||
11,
|
||||
11,
|
||||
1110,
|
||||
5000000000000000000000080000000000000000000000003000000000000000,
|
||||
#MEASURE 2/4
|
||||
,//48
|
||||
|
||||
#MEASURE 4/4
|
||||
#GOGOSTART
|
||||
#BPMCHANGE 140
|
||||
11,
|
||||
3330,
|
||||
11,
|
||||
#MEASURE 3/4
|
||||
78,
|
||||
#MEASURE 4/4
|
||||
1110,
|
||||
3330,
|
||||
1111,
|
||||
#BPMCHANGE 146
|
||||
78,
|
||||
3,
|
||||
3,
|
||||
33,
|
||||
3033,//59
|
||||
|
||||
#GOGOEND
|
||||
9,
|
||||
,
|
||||
09,
|
||||
8003,
|
||||
3,//100combo
|
||||
,
|
||||
,
|
||||
#END
|
||||
Reference in New Issue
Block a user