update
This commit is contained in:
609
tja/251.tja
Normal file
609
tja/251.tja
Normal file
@@ -0,0 +1,609 @@
|
||||
//TJADB Project
|
||||
TITLE:LOVE × LOVE Whistle
|
||||
TITLEJA:愛×愛ホイッスル(カレーメシ公式曲)
|
||||
SUBTITLE:--PolyphonicBranch feat. Hatsune Miku & Kagamine Rin
|
||||
SUBTITLEJA:PolyphonicBranch
|
||||
BPM:160
|
||||
WAVE:LOVE x LOVE Whistle.ogg
|
||||
OFFSET:-1.809
|
||||
DEMOSTART:48.486
|
||||
|
||||
COURSE:Oni
|
||||
LEVEL:9
|
||||
BALLOON:15,4
|
||||
SCOREINIT:260
|
||||
SCOREDIFF:80
|
||||
|
||||
|
||||
#START
|
||||
|
||||
|
||||
#BARLINEOFF
|
||||
,
|
||||
,
|
||||
,
|
||||
,
|
||||
#BARLINEON
|
||||
1021020101021020,
|
||||
1021020102102020,
|
||||
1021020101021020,
|
||||
1010210202212020,
|
||||
1021020101021020,
|
||||
1021020102102020,
|
||||
1021020101021020,
|
||||
1010210202212200,
|
||||
40404440,
|
||||
1110220210102022,
|
||||
1010220211120000,
|
||||
1110220210102022,
|
||||
1010221022120000,
|
||||
1110220210120222,
|
||||
1010220211120222,
|
||||
1110220210112020,
|
||||
#MEASURE 5/4
|
||||
2212221222112000
|
||||
#SCROLL 4
|
||||
4000,
|
||||
#MEASURE 4/4
|
||||
#SCROLL 1
|
||||
1110220210102022,
|
||||
1010220211120222,
|
||||
1110220210102022,
|
||||
1010220220400222,
|
||||
1110220210120222,
|
||||
1010220211120222,
|
||||
1110220210112020,
|
||||
2212221222112000,
|
||||
700
|
||||
#BPMCHANGE 180
|
||||
8,
|
||||
,
|
||||
1110101120201011,
|
||||
1120101120201000,
|
||||
1110201202012000,
|
||||
1110201202012000,
|
||||
1110101120201011,
|
||||
1120101120201000,
|
||||
202200202200,
|
||||
3344,//39
|
||||
|
||||
#GOGOSTART
|
||||
1110201110102011,
|
||||
1010201120102000,
|
||||
2210201022112010,
|
||||
1021202030003000,
|
||||
1101202010112020,
|
||||
1101202010221000,
|
||||
2211222211222000,
|
||||
2112112211222000,
|
||||
40340304,
|
||||
03043000,//49
|
||||
|
||||
#GOGOEND
|
||||
1000100110100010,
|
||||
2020200220200020,
|
||||
1000100110100010,
|
||||
2020200220200020,
|
||||
1000100110100010,
|
||||
2020200220200020,
|
||||
1000100110100010,
|
||||
2211221120101000,
|
||||
400000222000,
|
||||
,
|
||||
22222000,
|
||||
4,
|
||||
#MEASURE 15/16
|
||||
111011101111111,
|
||||
|
||||
#BPMCHANGE 240
|
||||
#MEASURE 4/4
|
||||
1000201110102011,
|
||||
1010201120002000,
|
||||
1000201110102011,
|
||||
1010201022202000,
|
||||
1000201110102011,
|
||||
1010201120002000,
|
||||
1000200011102010,
|
||||
01201020,
|
||||
1000201110102011,
|
||||
1010201022202000,
|
||||
1000201110102011,
|
||||
1010201022202220,
|
||||
1000201110102011,
|
||||
1010201011102000,
|
||||
40404404,
|
||||
04444000,
|
||||
2000211010202110,
|
||||
2000211010202110,
|
||||
2010112020202110,
|
||||
20107008,
|
||||
2000211010202110,
|
||||
2000211010202110,
|
||||
2010112020202110,
|
||||
2220111020000000,
|
||||
#BPMCHANGE 198.5
|
||||
,
|
||||
#BPMCHANGE 180
|
||||
1110101120201011,
|
||||
1120101120201000,
|
||||
1110201202012000,
|
||||
1110201202012000,
|
||||
1110101120201011,
|
||||
1120101120201000,
|
||||
202200202200,
|
||||
3344,//95
|
||||
|
||||
#GOGOSTART
|
||||
1110201110102011,
|
||||
1010201120102000,
|
||||
2210201022112010,
|
||||
1021202030003000,
|
||||
1101202010112020,
|
||||
1101202010221000,
|
||||
2211222211222000,
|
||||
2112112040004000,
|
||||
#SCROLL 1.2
|
||||
1110201110102011,
|
||||
1010201120102000,
|
||||
2210201022112010,
|
||||
1021202030003000,
|
||||
#SCROLL 1.4
|
||||
1101202010112020,
|
||||
1101202010221000,
|
||||
2211222211222000,
|
||||
2112112211222000,
|
||||
40340304,
|
||||
03043000,
|
||||
40340304,
|
||||
03043000,//115
|
||||
|
||||
#SCROLL 1
|
||||
#GOGOEND
|
||||
100100100222,
|
||||
100100100222,
|
||||
100100100222,
|
||||
1110,
|
||||
|
||||
|
||||
#END
|
||||
|
||||
|
||||
COURSE:Hard
|
||||
LEVEL:8
|
||||
BALLOON:10,8
|
||||
|
||||
#START
|
||||
#BARLINEOFF
|
||||
,
|
||||
,
|
||||
,
|
||||
,
|
||||
#BARLINEON
|
||||
1011010101011000,
|
||||
1011010101102000,
|
||||
1011010101011000,
|
||||
1010110101102000,
|
||||
1011010101011000,
|
||||
1011010101102000,
|
||||
1011010101011000,
|
||||
1010110101102000,
|
||||
30303330,
|
||||
1010200110102000,
|
||||
1010200110102000,
|
||||
1010200110102000,
|
||||
1010202010110000,
|
||||
1010200110102000,
|
||||
1010200110102000,
|
||||
1010200110102000,
|
||||
#MEASURE 5/4
|
||||
11101110303030000000,
|
||||
#MEASURE 4/4
|
||||
1010200110102000,
|
||||
1110200110102000,
|
||||
1010200110102000,
|
||||
1110110110400000,
|
||||
1010200110102000,
|
||||
1110200110102000,
|
||||
1010200110102000,
|
||||
1110111030303000,
|
||||
900000000900
|
||||
#BPMCHANGE 180
|
||||
8000,
|
||||
,
|
||||
11222110,
|
||||
11222110,
|
||||
1020200110102000,
|
||||
1020200110102000,
|
||||
11222110,
|
||||
11222110,
|
||||
3333,
|
||||
4440,//39
|
||||
|
||||
#GOGOSTART
|
||||
1010222010102000,
|
||||
1010222010102000,
|
||||
1022202010202000,
|
||||
1011101030003000,
|
||||
2022202020222020,
|
||||
20202220,
|
||||
1011101011101000,
|
||||
1011101011101000,
|
||||
30330303,
|
||||
03033000,//49
|
||||
|
||||
#GOGOEND
|
||||
1000100110100010,
|
||||
1010100110100010,
|
||||
1000100110100010,
|
||||
1010100110100010,
|
||||
1000100110100010,
|
||||
1010100110100010,
|
||||
1000100110100010,
|
||||
500000000000000000000000000000000008000000000000,
|
||||
400000222000,
|
||||
,
|
||||
22222000,
|
||||
4,
|
||||
#MEASURE 15/16
|
||||
700000000000800,
|
||||
#BPMCHANGE 240
|
||||
#MEASURE 4/4
|
||||
10201120,
|
||||
11201020,
|
||||
10201120,
|
||||
11202020,
|
||||
10201120,
|
||||
11201020,
|
||||
10101121,
|
||||
01201020,
|
||||
10201120,
|
||||
11201020,
|
||||
10201120,
|
||||
11202020,
|
||||
10201120,
|
||||
11201020,
|
||||
40404404,
|
||||
04444000,
|
||||
10221111,
|
||||
10221111,
|
||||
10222211,
|
||||
1110,
|
||||
10221111,
|
||||
10221111,
|
||||
10111111,
|
||||
22222000,
|
||||
#BPMCHANGE 198.5
|
||||
,
|
||||
#BPMCHANGE 180
|
||||
11222110,
|
||||
11222110,
|
||||
1020200110102000,
|
||||
1020200110102000,
|
||||
11222110,
|
||||
11222110,
|
||||
3333,
|
||||
4440,//95
|
||||
|
||||
#GOGOSTART
|
||||
1010222010102000,
|
||||
1010222010102000,
|
||||
1022202010202000,
|
||||
1011101030003000,
|
||||
2022202020222020,
|
||||
20202220,
|
||||
1011101011101000,
|
||||
1011101030003000,
|
||||
1010222010102000,
|
||||
1010222010102000,
|
||||
1022202010202000,
|
||||
1011101030003000,
|
||||
2022202020222020,
|
||||
20202220,
|
||||
1011101011101000,
|
||||
1011101011101000,
|
||||
30330303,
|
||||
03033000,
|
||||
30330303,
|
||||
03033000,//115
|
||||
|
||||
#GOGOEND
|
||||
100100100111,
|
||||
100100100111,
|
||||
100100100111,
|
||||
1110,
|
||||
,
|
||||
#END
|
||||
|
||||
COURSE:Normal
|
||||
LEVEL:6
|
||||
BALLOON:7,6
|
||||
|
||||
#START
|
||||
#BARLINEOFF
|
||||
,
|
||||
,
|
||||
,
|
||||
,
|
||||
#BARLINEON
|
||||
10001110,
|
||||
1012,
|
||||
10001110,
|
||||
1022,
|
||||
10001110,
|
||||
1012,
|
||||
10001110,
|
||||
1022,
|
||||
30303330,
|
||||
11201100,
|
||||
11201100,
|
||||
11201100,
|
||||
11202000,
|
||||
11201100,
|
||||
11201100,
|
||||
11201100,
|
||||
#MEASURE 5/4
|
||||
500000000000000000000000000000000008000000000000000000000000,
|
||||
#MEASURE 4/4
|
||||
#SCROLL 1
|
||||
11201101,
|
||||
11201101,
|
||||
11201101,
|
||||
11202000,
|
||||
11201101,
|
||||
11201101,
|
||||
11201101,
|
||||
500000000000000000000000000000000008000000000000,
|
||||
900000000900
|
||||
#BPMCHANGE 180
|
||||
8000,
|
||||
,
|
||||
10101110,
|
||||
10101110,
|
||||
500000000000000000000000000000000008000000000000,
|
||||
500000000000000000000000000000000008000000000000,
|
||||
10101110,
|
||||
10101110,
|
||||
3333,
|
||||
4440,//39
|
||||
|
||||
#GOGOSTART
|
||||
10211020,
|
||||
10211020,
|
||||
20111020,
|
||||
11103030,
|
||||
11201120,
|
||||
10211020,
|
||||
500000000000000000000000000000000008000000000000,
|
||||
500000000000000000000000000000000008000000000000,
|
||||
30030003,
|
||||
03033000,//49
|
||||
|
||||
#GOGOEND
|
||||
1110,
|
||||
11101000,
|
||||
1110,
|
||||
11101000,
|
||||
1110,
|
||||
11101000,
|
||||
1110,
|
||||
500000000000000000000000000000000008000000000000,
|
||||
4,
|
||||
,
|
||||
,
|
||||
,
|
||||
#MEASURE 15/16
|
||||
700000000000800,
|
||||
#BPMCHANGE 240
|
||||
#MEASURE 4/4
|
||||
1110,
|
||||
1112,
|
||||
1110,
|
||||
1112,
|
||||
1110,
|
||||
1112,
|
||||
30304006,
|
||||
000000000000000000000008000000000000000000000000,
|
||||
1110,
|
||||
1112,
|
||||
1110,
|
||||
1112,
|
||||
1110,
|
||||
1112,
|
||||
40404006,
|
||||
000000000000000000000008000000000000000000000000,
|
||||
1110,
|
||||
1110,
|
||||
1112,
|
||||
1120,
|
||||
1110,
|
||||
1110,
|
||||
1112,
|
||||
1110,
|
||||
#BPMCHANGE 198.5
|
||||
,
|
||||
#BPMCHANGE 180
|
||||
10101110,
|
||||
10101110,
|
||||
500000000000000000000000000000000008000000000000,
|
||||
500000000000000000000000000000000008000000000000,
|
||||
10101110,
|
||||
10101110,
|
||||
3333,
|
||||
4440,//95
|
||||
|
||||
#GOGOSTART
|
||||
10211020,
|
||||
10211020,
|
||||
20111020,
|
||||
11103030,
|
||||
11201120,
|
||||
10211020,
|
||||
500000000000000000000000000000000008000000000000,
|
||||
1144,
|
||||
10211020,
|
||||
10211020,
|
||||
20111020,
|
||||
11103030,
|
||||
11201120,
|
||||
10211020,
|
||||
500000000000000000000000000000000008000000000000,
|
||||
500000000000000000000000000000000008000000000000,
|
||||
30030003,
|
||||
03033000,
|
||||
30030003,
|
||||
03003000,//115
|
||||
|
||||
#GOGOEND
|
||||
1114,
|
||||
1114,
|
||||
1114,
|
||||
1110,
|
||||
,
|
||||
#END
|
||||
|
||||
COURSE:Easy
|
||||
LEVEL:4
|
||||
BALLOON:4,4,5
|
||||
|
||||
#START
|
||||
#BARLINEOFF
|
||||
,
|
||||
,
|
||||
,
|
||||
,
|
||||
#BARLINEON
|
||||
1100,
|
||||
1102,
|
||||
1100,
|
||||
1110,
|
||||
1100,
|
||||
1102,
|
||||
1100,
|
||||
1110,
|
||||
3340,
|
||||
1011,
|
||||
1012,
|
||||
1011,
|
||||
22,
|
||||
1011,
|
||||
1012,
|
||||
1011,
|
||||
#MEASURE 5/4
|
||||
500000000000000000000000000000000008000000000000000000000000,
|
||||
#MEASURE 4/4
|
||||
1011,
|
||||
1012,
|
||||
1011,
|
||||
12,
|
||||
1011,
|
||||
1012,
|
||||
1011,
|
||||
500000000000000000000000000000000008000000000000,
|
||||
900000000900
|
||||
#BPMCHANGE 180
|
||||
8000,
|
||||
,
|
||||
1110,
|
||||
1110,
|
||||
500000000000000000000000000008000000000000000000,
|
||||
500000000000000000000000000008000000000000000000,
|
||||
1110,
|
||||
1110,
|
||||
33,
|
||||
3330,//39
|
||||
|
||||
#GOGOSTART
|
||||
1110,
|
||||
1120,
|
||||
1110,
|
||||
1133,
|
||||
11,
|
||||
2220,
|
||||
500000000000000000000000000008000000000000000000,
|
||||
500000000000000000000000000008000000000000000000,
|
||||
30030003,
|
||||
03003000,//49
|
||||
|
||||
#GOGOEND
|
||||
11,
|
||||
1110,
|
||||
11,
|
||||
1110,
|
||||
11,
|
||||
1110,
|
||||
11,
|
||||
500000000000000000000000000008000000000000000000,
|
||||
4,
|
||||
,
|
||||
,
|
||||
,
|
||||
#MEASURE 15/16
|
||||
700000000000800,
|
||||
#BPMCHANGE 240
|
||||
#MEASURE 4/4
|
||||
#SCROLL 0.75
|
||||
0101,
|
||||
0101,
|
||||
0101,
|
||||
0122,
|
||||
0101,
|
||||
0101,
|
||||
7,
|
||||
8,
|
||||
0101,
|
||||
0101,
|
||||
0101,
|
||||
0122,
|
||||
0101,
|
||||
0101,
|
||||
4440,
|
||||
600000000000000000000000000008000000000000000000,
|
||||
1110,
|
||||
1110,
|
||||
1111,
|
||||
1110,
|
||||
1110,
|
||||
1110,
|
||||
1111,
|
||||
1110,
|
||||
#BPMCHANGE 198.5
|
||||
,
|
||||
#BPMCHANGE 180
|
||||
1110,
|
||||
1110,
|
||||
500000000000000000000000000008000000000000000000,
|
||||
500000000000000000000000000008000000000000000000,
|
||||
1110,
|
||||
1110,
|
||||
33,
|
||||
3330,//95
|
||||
|
||||
#GOGOSTART
|
||||
1110,
|
||||
1120,
|
||||
1110,
|
||||
1133,
|
||||
11,
|
||||
2220,
|
||||
500000000000000000000000000008000000000000000000,
|
||||
1144,
|
||||
1110,
|
||||
1120,
|
||||
1110,
|
||||
1133,
|
||||
11,
|
||||
2220,
|
||||
500000000000000000000000000008000000000000000000,
|
||||
500000000000000000000000000000000008000000000000,
|
||||
30030003,
|
||||
03003000,
|
||||
30030003,
|
||||
03003000,//115
|
||||
|
||||
#GOGOEND
|
||||
1110,
|
||||
1110,
|
||||
1110,
|
||||
1110,
|
||||
,
|
||||
#END
|
||||
Reference in New Issue
Block a user