This commit is contained in:
2026-03-07 15:37:31 +09:00
parent 4b4e2b8c98
commit 60bc4e620d
110 changed files with 71338 additions and 0 deletions

580
tja/260.tja Normal file
View File

@@ -0,0 +1,580 @@
//TJADB Project
TITLE:Mahoujin -Summon Delta-
TITLEJA:魔方陣 -サモン・デルタ-
SUBTITLE:--Hisui
SUBTITLEJA:翡翠
BPM:236
WAVE:Mahoujin -Summon Delta-.ogg
OFFSET:-2.129
DEMOSTART:91.615
//Shinuchi: 6540/4020/2410/1570
COURSE:Oni
LEVEL:9
BALLOON:16,12,8
SCOREINIT:550,1650
SCOREDIFF:140
//WiiU3 score: 570/138
#START
#MEASURE 8/4
#SCROLL 0.55
#BARLINEOFF
0,
#BARLINEON
10201122,
100000000000200000000020100020100000200100200000,
100000000000200000000020100000100000200000200100,
000000000000200000000020100020100000200000200100,
000000200002100100200200,
100100200002102100202020,
700000000000000000000000000000000000000000000000000000000000000000000008000000000000000000000000,
100100200100100200000100100010001010200020002020, //9
101210202120101210202020,
100010201000200020102000100000100000200200200200,
1001021102011120,
1001021102012110,
1001021102011120,
1021003002012211,
1001021102011120,
1001021102012111, //17
100020002000100200200100200020001000200200100200,
500000000000000000000000000000000000000008000000000000200000000000200000100000100000200000000000,
100000000000200000000020100000100000200000200100,
000000100000200000000020100000100000200000200100,
000100200002100100200200,
700000000000000000000000000000000000000000000008000000000000000000000000200000002000000020000000,
100010002000102010001000200000100000000100000000,
300000000000200000100000100000200000100000100000500000000000000000000000000000000008000000000000, //25
100200200000100200200000100200200000100200202020,
100200200000100200200000100200200000100200101020,
100200200000100200200000100200200000100200202010,
1202020201121120,
1110211011212121,
1110211010211211,
2022020202110220,
20201020002020102010222000100010, //33
#MEASURE 5/4
3,
0000002210,
3,
700000000000000000000000000000080000000000000000100000000000,
3,
2101202101,
300000222100200,
10002010002220201010, //41
1011012010,
10001010002220002000,
1011012010,
100000100100000100202020200000,
1221021020,
10001010002210102010,
20002020002010000011,
2222021010,
#MEASURE 8/4
13000000, //50
#MEASURE 3/4
#SCROLL 0.65
#GOGOSTART
100201200,
101102102,
112,
200102111,
100102100,
200102100,
333,
122222111, //58
100201200,
101102102,
112,
122102111,
5,
000000000000000008000000000000002000,
100203001,
202201222, //66
100201200,
101102102,
112,
202121212,
100201001,
200201001,
14,
34, //74
003003002,
102100222,
003003002,
102100222,
5,
000000000000000000000008000000000000,
300004000,
222202200, //82
#GOGOEND
#MEASURE 8/4
#SCROLL 0.55
1011020210102000,
1011020210220120,
100000200100000100000100100000202020101010200100,
2022020220103000,
10201122,
100000200002102100200200,
100000200002100100200200,
1002, //90
#BARLINEOFF
0,
0,
0,
0, //94
#END
COURSE:Hard
LEVEL:7
BALLOON:14,8,10,4,4
SCOREINIT:690,2580
SCOREDIFF:178
//WiiU3 score: 680/178
#START
#MEASURE 8/4
#SCROLL 0.55
#BARLINEOFF
0,
#BARLINEON
10201022,
10201122,
10201022,
10201122,
10201022,
10201122,
700000000000000000000000000000000000000000000000000000000000000000000008000000000000000000000000,
100100100000200000000000100010001000200000000000, //9
111222111222,
111222100300,
1001001002011000,
1001001002011010,
1001001002011000,
1001001002011110,
1001001002011000,
1001001002011010, //17
111222111222,
500000000000000000000000000000000000000000000000000000000000000000000008000000000000000000000000,
1000200010102001,
0000200010102001,
00201120,
700000000000000000000000000000000000000000000008000000000000000000000000200000002000000020000000,
100010001000100000000000000000100000000100000000,
100000000000100000100000100000000000000000000000500000000000000000000008000000000000000000000000, //25
1001100010011000,
1001100011010101,
1001100010011000,
100000000000000000100000700000000000000000000000000000000000000000000008000000000000000000000000,
1001200010011010,
1001200020110110,
2002020202022000,
1021001021011110, //33
#MEASURE 5/4
3,
0000002220,
3,
20001,
11221,
11221,
11221,
1010222011,
1011001010,
1011002020,
1011001010,
1011002020,
1111001010,
1111002020,
1111001010,
2222022020,
#MEASURE 8/4
23000000, //50
#MEASURE 3/4
#SCROLL 0.65
#GOGOSTART
100001100,
122,
111,
222,
100001100,
122,
111,
3, //58
100001100,
122,
111,
222,
5,
000000000008000000000000000000000000,
300003000,
3, //66
100001100,
122,
111,
222,
100101000,
100101000,
34,
34, //74
100001000,
700008000,
100001000,
700008000,
5,
0,
000000000008000000000000000000000000,
3, //82
#GOGOEND
#MEASURE 8/4
#SCROLL 0.55
1011010110101000,
1011010110101000,
1011010110101000,
2022020220103000,
10201022,
10201122,
10201022,
1002, //90
#BARLINEOFF
0,
0,
0,
0, //94
#END
COURSE:Normal
LEVEL:6
BALLOON:8,8,8,6,6
SCOREINIT:860,4420
SCOREDIFF:258
//WiiU3 score: 870/255
#START
#MEASURE 8/4
#SCROLL 0.5
#BARLINEOFF
0,
#BARLINEON
1210,
10001110,
1210,
10001110,
1210,
10001110,
70000000000000000000080000000000,
01103000, //9
111100100000,
111100100000,
1001001001001000,
1001001001001000,
1001001001001000,
1001001001001000,
2002002002002000,
2002002002002000, //17
2002002002002000,
500000000000000000000000000000000000000000000000000000000000000008000000000000000000000000000000,
1210,
10001110,
1210,
70000000000000000000080000000000,
111100200000,
11103000, //25
1111,
1000100010011000,
1111,
70000000000000000000080000000000,
1212,
1000200010011000,
1212,
1001100010000000, //33
#MEASURE 5/4
3,
0,
3,
0,
11110,
1,
11110,
2, //41
1011001000,
1,
1011001000,
2,
1001001000,
2002002000,
1001001000,
2002002020,
#MEASURE 8/4
22000000, //50
#MEASURE 3/4
#SCROLL 0.6
#GOGOSTART
111,
1,
111,
1,
111,
1,
222,
2, //58
111,
1,
111,
1,
5,
000008000000000000000000000000000000,
3,
3, //66
111,
2,
111,
2,
111,
2,
33,
33, //74
700000000000000000000000000000000008,
0,
700000000000000000000000000000000008,
0,
5,
0,
000000000000000000000000000000000008,
0, //82
#GOGOEND
#MEASURE 8/4
#SCROLL 0.5
30002220,
30002220,
30002220,
30002220,
1210,
10001110,
1210,
1002, //90
#BARLINEOFF
0,
0,
0,
0, //94
#END
COURSE:Easy
LEVEL:4
BALLOON:6,14,16,18,20,8,4,4
SCOREINIT:820,7380
SCOREDIFF:258
//WiiU3 score: 810/255
#START
#MEASURE 8/4
#SCROLL 0.5
#BARLINEOFF
0,
#BARLINEON
12,
1110,
12,
1110,
12,
1110,
70000000000000000000080000000000,
3, //9
1110,
1110,
7,
000000000000000000000008000000000000000000000000,
7,
000000000000000000000008000000000000000000000000,
7,
000000000000000000000008000000000000000000000000, //17
7,
000000000000000000000008000000000000000000000000,
12,
1110,
12,
1110,
3300,
500000000000000000000000000000000000000000000008000000000000000000000000000000000000000000000000, //25
1111,
1110,
1111,
1110,
1212,
1210,
1212,
1210, //33
#MEASURE 5/4
3,
0,
4,
0,
3,
0,
4,
0, //41
11010,
1,
11011,
1,
11010,
1,
11010,
#BARLINEOFF
7,
#BARLINEON
#MEASURE 8/4
000000000008000000000000000000000000000000000000000000000000000000000000000000000000000000000000, //50
#MEASURE 3/4
#SCROLL 0.6
#GOGOSTART
1,
1,
111,
1,
1,
1,
111,
1, //58
1,
1,
111,
1,
5,
0,
000000000000000000000008000000000000,
0, //66
1,
1,
111,
1,
1,
1,
3,
0, //74
700000000000000000000000000000000008,
0,
700000000000000000000000000000000008,
0,
5,
0,
000000000000000000000008000000000000,
0, //82
#GOGOEND
#MEASURE 8/4
#SCROLL 0.5
10001110,
10001110,
10001110,
10001110,
12,
1110,
12,
1002, //90
#BARLINEOFF
0,
0,
0,
0, //94
#END