update
This commit is contained in:
740
tja/269.tja
Normal file
740
tja/269.tja
Normal file
@@ -0,0 +1,740 @@
|
||||
//TJADB Project
|
||||
TITLE:Metal Hawk BGM1
|
||||
TITLEJA:メタルホーク BGM1
|
||||
SUBTITLE:--Shinji Hosoe/Metal Hawk
|
||||
BPM:153.240
|
||||
WAVE:Metal Hawk BGM1.ogg
|
||||
OFFSET:-1.805
|
||||
DEMOSTART:4.937
|
||||
|
||||
COURSE:Oni
|
||||
LEVEL:10
|
||||
SCOREINIT:450
|
||||
SCOREDIFF:110
|
||||
|
||||
|
||||
#START
|
||||
|
||||
|
||||
222020111010102020102020,
|
||||
322303200322,
|
||||
101211202112,
|
||||
101211101211,
|
||||
112112112100,
|
||||
221221121200,
|
||||
101211202112,
|
||||
101211100121,
|
||||
112112112100,
|
||||
221221221222,
|
||||
101211101411,
|
||||
101211101402,
|
||||
101211101411,
|
||||
101211111402,
|
||||
101211101411,
|
||||
101211101402,
|
||||
101211111411,
|
||||
101211111422,
|
||||
300000301222,
|
||||
112112303000,
|
||||
301201121212,
|
||||
101200304000,
|
||||
300000221222,
|
||||
101200303000,
|
||||
301200404030,
|
||||
101200404030,
|
||||
#SECTION
|
||||
#BRANCHSTART p,75,99
|
||||
#N
|
||||
,//N27
|
||||
|
||||
#GOGOSTART
|
||||
111100222200,
|
||||
111100222202,
|
||||
111202111202,
|
||||
121202121200,
|
||||
111202111100,
|
||||
111202111100,
|
||||
222100222102,
|
||||
101200304000,//N35
|
||||
#E
|
||||
,//E27
|
||||
|
||||
#GOGOSTART
|
||||
111202111202,
|
||||
111202111202,
|
||||
221202221201,
|
||||
121201121201,
|
||||
122101122102,
|
||||
122202122200,
|
||||
222100222102,
|
||||
101200304000,//E35
|
||||
#M
|
||||
,//M27
|
||||
|
||||
#GOGOSTART
|
||||
111222111222,
|
||||
111222111222,
|
||||
221221221221,
|
||||
121212212221,
|
||||
122221221212,
|
||||
122211122100,
|
||||
222100122122,
|
||||
101200304000,//M35
|
||||
|
||||
#SECTION
|
||||
#BRANCHSTART p,75,85
|
||||
#N
|
||||
#GOGOEND
|
||||
101202121200,
|
||||
101202121200,
|
||||
111100222200,
|
||||
111100222200,
|
||||
121202121202,
|
||||
220220220111,
|
||||
121202121202,
|
||||
100200304000,
|
||||
#E
|
||||
#GOGOEND
|
||||
101202121200,
|
||||
101202121201,
|
||||
122202122202,
|
||||
122202122202,
|
||||
121202121202,
|
||||
221221221221,
|
||||
121202121202,
|
||||
100200304000,
|
||||
#M
|
||||
#GOGOEND
|
||||
111202121202,
|
||||
111202221221,
|
||||
122122122122,
|
||||
122122221221,
|
||||
121122121122,
|
||||
221221121221,
|
||||
121202121202,
|
||||
100000200000221010211010,
|
||||
|
||||
#SECTION
|
||||
#BRANCHSTART p,75,85
|
||||
#N
|
||||
#GOGOSTART
|
||||
111011101000111011101000,
|
||||
500000000000000000000000000000000000000008000000,
|
||||
111010200020111010200000,
|
||||
222111222111,
|
||||
111010200000111010200000,
|
||||
111010200020111010200020,
|
||||
500000000000000000000000000000000000000008000000,
|
||||
300400303000,//N51
|
||||
#E
|
||||
#GOGOSTART
|
||||
222022201000222022201000,
|
||||
500000000000000000000000000000000000000008000000,
|
||||
111010222020111010202010,
|
||||
221221221221,
|
||||
111010222020111010222020,
|
||||
111010222020111010222020,
|
||||
500000000000000000000000000000000000000008000000,
|
||||
300400303000,//E51
|
||||
#M
|
||||
#GOGOSTART
|
||||
221022101110221022101110,
|
||||
500000000000000000000000000000000000000008000000,
|
||||
112112112112111010202010,
|
||||
211211211211211211211200,
|
||||
222111222110222111222110,
|
||||
222111222110222111222110,
|
||||
111120111120111120111120,
|
||||
300400303000,//M51
|
||||
|
||||
#SECTION
|
||||
#BRANCHSTART p,75,85
|
||||
#N
|
||||
#GOGOEND
|
||||
101201111202,
|
||||
122202122202,
|
||||
112102112102,
|
||||
101000111201,
|
||||
101211211201,
|
||||
101211211200,
|
||||
112102112102,
|
||||
101200304000,//N59
|
||||
#E
|
||||
#GOGOEND
|
||||
101201111202,
|
||||
122202122202,
|
||||
112102112102,
|
||||
101000111201,
|
||||
101211211201,
|
||||
101211211200,
|
||||
112112112112,
|
||||
101200304000,//E59
|
||||
#M
|
||||
#GOGOEND
|
||||
101201112112,
|
||||
122122122122,
|
||||
112112112112,
|
||||
101211111201,
|
||||
101211211201,
|
||||
101211211201,
|
||||
121221212212,
|
||||
101200304000,//M59
|
||||
|
||||
#SECTION
|
||||
#BRANCHSTART p,75,85
|
||||
#N
|
||||
#GOGOSTART
|
||||
101401101200,
|
||||
122121101200,
|
||||
101400212122,
|
||||
102022110000,
|
||||
101400222111,
|
||||
222410100000,
|
||||
111202111202,
|
||||
100010001000200020002000500000000000000008000000,
|
||||
#E
|
||||
#GOGOSTART
|
||||
101401101200,
|
||||
122121101200,
|
||||
101400212122,
|
||||
102022111200,
|
||||
101400221221,
|
||||
221410100000,
|
||||
111222111222,
|
||||
100010001000200020002000500000000000000008000000,
|
||||
#M
|
||||
#GOGOSTART
|
||||
101401101200,
|
||||
122121101200,
|
||||
101400212122,
|
||||
102022111200,
|
||||
101411221221,
|
||||
221410101200,
|
||||
221221211211,
|
||||
211211122122,
|
||||
#SECTION
|
||||
#BRANCHSTART p,75,85
|
||||
#N
|
||||
101400112121,
|
||||
001401101200,
|
||||
111402121202,
|
||||
121401101200,
|
||||
101400112112,
|
||||
202312102010,
|
||||
300411400420,
|
||||
312321420500,
|
||||
,
|
||||
000000000000000000000000000000000000000008000000,
|
||||
#E
|
||||
101401122121,
|
||||
101401101200,
|
||||
111402121202,
|
||||
121401101211,
|
||||
101400112112,
|
||||
202312102010,
|
||||
300411400420,
|
||||
312321420500,
|
||||
,
|
||||
000000000000000000000000000000000000000008000000,
|
||||
#M
|
||||
101401122121,
|
||||
101401101200,
|
||||
111402121202,
|
||||
121401101211,
|
||||
101400112112,
|
||||
202312102010,
|
||||
300411400420,
|
||||
312321420500,
|
||||
,
|
||||
000000000000000000000000000000000008000000003000,
|
||||
|
||||
#BRANCHEND
|
||||
|
||||
|
||||
#END
|
||||
|
||||
|
||||
COURSE:Hard
|
||||
LEVEL:8
|
||||
BALLOON:10,10,10,10,10,10,18,18,18
|
||||
SCOREINIT:570
|
||||
SCOREDIFF:120
|
||||
|
||||
#START
|
||||
,
|
||||
100121100200,
|
||||
101200101200,
|
||||
101201101200,
|
||||
101200101200,
|
||||
202202202200,
|
||||
101200101200,
|
||||
101201101200,
|
||||
101200101200,
|
||||
100000001000100000000000500000000000000800000000,
|
||||
#SECTION
|
||||
#BRANCHSTART p,75,100
|
||||
#N
|
||||
100111100200,
|
||||
100111100000,
|
||||
100111100200,
|
||||
100111100000,
|
||||
100111100200,
|
||||
100111100000,
|
||||
100111100200,
|
||||
100111100000,
|
||||
#E
|
||||
101111100200,
|
||||
101111102200,
|
||||
101111100200,
|
||||
101111100000,
|
||||
101111100200,
|
||||
101111102200,
|
||||
101111100200,
|
||||
101111100000,
|
||||
#M
|
||||
101111100200,
|
||||
101111101200,
|
||||
101111100200,
|
||||
101111222200,
|
||||
101111100200,
|
||||
101111101200,
|
||||
101111100200,
|
||||
101111111200,
|
||||
#SECTION
|
||||
#BRANCHSTART p,75,85
|
||||
#N
|
||||
300000101201,
|
||||
100330,
|
||||
12,
|
||||
101200300000,
|
||||
300000101101,
|
||||
100330,
|
||||
300443,
|
||||
102200404030,
|
||||
,//N27
|
||||
#E
|
||||
300000101201,
|
||||
100330,
|
||||
12,
|
||||
101200300000,
|
||||
300000101101,
|
||||
100330,
|
||||
300443,
|
||||
102200404030,
|
||||
,//E27
|
||||
#M
|
||||
300000101201,
|
||||
100330,
|
||||
12,
|
||||
101200304000,
|
||||
300000101101,
|
||||
100330,
|
||||
300443,
|
||||
202200404030,
|
||||
,//M27
|
||||
|
||||
#SECTION
|
||||
#BRANCHSTART p,75,85
|
||||
#N
|
||||
#GOGOSTART
|
||||
101100101100,
|
||||
101100101100,
|
||||
202200222200,
|
||||
202202202200,
|
||||
102200102200,
|
||||
102200222200,
|
||||
101200101200,
|
||||
500000000000000000000000000000000000000008000000,//N35
|
||||
#E
|
||||
#GOGOSTART
|
||||
101201101201,
|
||||
101201101201,
|
||||
101101111100,
|
||||
202202202200,
|
||||
101201101201,
|
||||
101201101100,
|
||||
101200101200,
|
||||
500000000000000000000000000000000000000008000000,//E35
|
||||
#M
|
||||
#GOGOSTART
|
||||
101202101202,
|
||||
101202101202,
|
||||
101101111100,
|
||||
202202202222,
|
||||
101201101201,
|
||||
101201111100,
|
||||
101200101200,
|
||||
500000000000000000000000000000000000000008000000,//M35
|
||||
|
||||
#SECTION
|
||||
#BRANCHSTART p,75,85
|
||||
#N
|
||||
#GOGOEND
|
||||
100200110201,
|
||||
100200110200,
|
||||
100201100201,
|
||||
100200110200,
|
||||
100200110201,
|
||||
100200110200,
|
||||
1212,
|
||||
70000800,//N43
|
||||
#E
|
||||
#GOGOEND
|
||||
110200110201,
|
||||
110200110200,
|
||||
102202202202,
|
||||
102202202200,
|
||||
110200110201,
|
||||
110200110201,
|
||||
110200110200,
|
||||
70000800,//E43
|
||||
#M
|
||||
#GOGOEND
|
||||
110201110201,
|
||||
110201110200,
|
||||
101201101201,
|
||||
101201101200,
|
||||
110201110201,
|
||||
110201110201,
|
||||
110202110200,
|
||||
70000800,//M43
|
||||
|
||||
#SECTION
|
||||
#BRANCHSTART p,75,85
|
||||
#N
|
||||
#GOGOSTART
|
||||
101101101100,
|
||||
70000800,
|
||||
202202202200,
|
||||
12121212,
|
||||
300000000000600800000000300000000000600800000000,
|
||||
300000000000600800000000300000000000600800000000,
|
||||
1133,
|
||||
300400303000,//N51
|
||||
#E
|
||||
#GOGOSTART
|
||||
111011101110,
|
||||
70000800,
|
||||
222022202220,
|
||||
12121212,
|
||||
300000000000600800000000300000000000600800000000,
|
||||
300000000000600800000000300000000000600800000000,
|
||||
1133,
|
||||
300400303000,//E51
|
||||
#M
|
||||
#GOGOSTART
|
||||
111111111111,
|
||||
70000800,
|
||||
222222222200,
|
||||
12121212,
|
||||
300000000000600800000000300000000000600800000000,
|
||||
101010000000600800000000101010000000600800000000,
|
||||
1133,
|
||||
300400303000,//M51
|
||||
|
||||
#SECTION
|
||||
#BRANCHSTART p,75,85
|
||||
#N
|
||||
#GOGOEND
|
||||
100201101100,
|
||||
100202202200,
|
||||
100202202200,
|
||||
101000111100,
|
||||
202000222200,
|
||||
101000222200,
|
||||
101200101200,
|
||||
300400303000,//N59
|
||||
#E
|
||||
#GOGOEND
|
||||
101201101100,
|
||||
101102202200,
|
||||
101102202200,
|
||||
101000111100,
|
||||
202000222200,
|
||||
101000222200,
|
||||
101200101200,
|
||||
300400303000,//E59
|
||||
#M
|
||||
#GOGOEND
|
||||
101201111100,
|
||||
101201201200,
|
||||
102102102100,
|
||||
101000112200,
|
||||
101000112200,
|
||||
101000221100,
|
||||
101200101200,
|
||||
300400303000,//M59
|
||||
|
||||
#SECTION
|
||||
#BRANCHSTART p,75,85
|
||||
#N
|
||||
#GOGOSTART
|
||||
101200101100,
|
||||
101200100000,
|
||||
101200101100,
|
||||
333600,
|
||||
000000000008000000000000200000002000200000002000,
|
||||
202202200000,
|
||||
7,
|
||||
00000800,
|
||||
#E
|
||||
#GOGOSTART
|
||||
101200101100,
|
||||
101201100000,
|
||||
101200101200,
|
||||
333600,
|
||||
000000000008000000000000200000002000200000002000,
|
||||
202202200000,
|
||||
7,
|
||||
00000800,
|
||||
#M
|
||||
#GOGOSTART
|
||||
101200101100,
|
||||
101201100200,
|
||||
101200101200,
|
||||
333600,
|
||||
000000000008000000000000100000002000200000002000,
|
||||
102202200000,
|
||||
7,
|
||||
00000800,
|
||||
#SECTION
|
||||
#BRANCHSTART p,75,85
|
||||
#N
|
||||
101200101100,
|
||||
101200100000,
|
||||
101200101100,
|
||||
101200100200,
|
||||
101200220220,
|
||||
202200300000,
|
||||
110220110220,
|
||||
112200120500,
|
||||
,
|
||||
000000000000000000000000000000000008000000003000,
|
||||
#E
|
||||
101200101100,
|
||||
101200100200,
|
||||
101200101100,
|
||||
101200100200,
|
||||
101200220220,
|
||||
202200303030,
|
||||
110220110220,
|
||||
112200120500,
|
||||
,
|
||||
000000000000000000000000000000000008000000003000,
|
||||
#M
|
||||
101201101200,
|
||||
101201100200,
|
||||
101201101200,
|
||||
101201100200,
|
||||
101200221221,
|
||||
101200303030,
|
||||
110220110220,
|
||||
112200120500,
|
||||
,
|
||||
000000000000000000000000000000000008000000003000,
|
||||
|
||||
#BRANCHEND
|
||||
|
||||
|
||||
#END
|
||||
|
||||
|
||||
COURSE:Normal
|
||||
LEVEL:6
|
||||
BALLOON:10,10,10,18,26
|
||||
SCOREINIT:760
|
||||
SCOREDIFF:170
|
||||
|
||||
#START
|
||||
,
|
||||
33,
|
||||
101100200100,
|
||||
1,
|
||||
101100200000,
|
||||
2220,
|
||||
101100200100,
|
||||
1,
|
||||
101100200000,
|
||||
7008,
|
||||
110220,
|
||||
110220,
|
||||
110220,
|
||||
110400,
|
||||
110220,
|
||||
110220,
|
||||
110220,
|
||||
100000001000000000000000500000000008000000000000,
|
||||
3,
|
||||
000110,
|
||||
12,
|
||||
1210,
|
||||
3,
|
||||
300330,
|
||||
33,
|
||||
300400303030,
|
||||
,//27
|
||||
|
||||
#GOGOSTART
|
||||
1212,
|
||||
1212,
|
||||
1221,
|
||||
1221,
|
||||
2121,
|
||||
1221,
|
||||
1212,
|
||||
500000000000000000000000000000080000000000000000,//35
|
||||
|
||||
#GOGOEND
|
||||
12,
|
||||
101000200100,
|
||||
1212,
|
||||
1212,
|
||||
101100200000,
|
||||
1120,
|
||||
101100202200,
|
||||
7008,//43
|
||||
|
||||
#GOGOSTART
|
||||
1111,
|
||||
7008,
|
||||
2222,
|
||||
500008000000600008000000500008000000600008000000,
|
||||
3232,
|
||||
3232,
|
||||
500008000000500008000000600008000000600008000000,
|
||||
3430,//51
|
||||
|
||||
#GOGOEND
|
||||
101100100200,
|
||||
1222,
|
||||
1222,
|
||||
1012,
|
||||
1012,
|
||||
1012,
|
||||
1122,
|
||||
3,//59
|
||||
|
||||
#GOGOSTART
|
||||
101100200100,
|
||||
1210,
|
||||
101100200100,
|
||||
3460,
|
||||
000000008000000000000000400000000000400000000000,
|
||||
300000000000400000000000600000000000000008000000,
|
||||
7,
|
||||
0008,
|
||||
1021,
|
||||
1210,
|
||||
1212,
|
||||
100000000000500000000000000000000000000000000008,
|
||||
0012,
|
||||
1210,
|
||||
110110400400,
|
||||
3437,
|
||||
,
|
||||
000000000803,
|
||||
,
|
||||
,
|
||||
,
|
||||
,
|
||||
#END
|
||||
|
||||
COURSE:Easy
|
||||
LEVEL:5
|
||||
BALLOON:8,8,8,14,14
|
||||
SCOREINIT:590
|
||||
SCOREDIFF:120
|
||||
|
||||
#START
|
||||
,
|
||||
33,
|
||||
12,
|
||||
1110,
|
||||
12,
|
||||
1111,
|
||||
12,
|
||||
1110,
|
||||
12,
|
||||
1111,
|
||||
12,
|
||||
12,
|
||||
12,
|
||||
1,
|
||||
12,
|
||||
12,
|
||||
12,
|
||||
1,
|
||||
3,
|
||||
01,
|
||||
12,
|
||||
1210,
|
||||
3,
|
||||
33,
|
||||
34,
|
||||
300333,
|
||||
,//27
|
||||
|
||||
#GOGOSTART
|
||||
1212,
|
||||
1212,
|
||||
1221,
|
||||
500000000000000000000000000008000000000000000000,
|
||||
2121,
|
||||
1221,
|
||||
1212,
|
||||
7008,//35
|
||||
|
||||
#GOGOEND
|
||||
12,
|
||||
1,
|
||||
1212,
|
||||
1212,
|
||||
11,
|
||||
1212,
|
||||
12,
|
||||
7008,//43
|
||||
|
||||
#GOGOSTART
|
||||
1111,
|
||||
7008,
|
||||
2222,
|
||||
500008000000600008000000500008000000600008000000,
|
||||
33,
|
||||
33,
|
||||
500008000000500008000000600008000000600008000000,
|
||||
33,//51
|
||||
|
||||
#GOGOEND
|
||||
1212,
|
||||
1202,
|
||||
1202,
|
||||
1012,
|
||||
1012,
|
||||
1012,
|
||||
1122,
|
||||
1,//59
|
||||
|
||||
#GOGOSTART
|
||||
1021,
|
||||
1250,
|
||||
000008000000000000000000200000000000100000000000,
|
||||
36,
|
||||
000008000000000000000000400000000000400000000000,
|
||||
300000000000400000000000600000000000000008000000,
|
||||
7,
|
||||
0008,
|
||||
1012,
|
||||
500000000000000000000000000008000000000000000000,
|
||||
1212,
|
||||
100000000000500000000000000000000000000000000008,
|
||||
0011,
|
||||
2210,
|
||||
1234,
|
||||
1237,
|
||||
,
|
||||
000000000803,
|
||||
,
|
||||
,
|
||||
,
|
||||
,
|
||||
#END
|
||||
Reference in New Issue
Block a user