This commit is contained in:
2026-03-07 15:37:31 +09:00
parent 4b4e2b8c98
commit 60bc4e620d
110 changed files with 71338 additions and 0 deletions

459
tja/302.tja Normal file
View File

@@ -0,0 +1,459 @@
//TJADB Project
TITLE:Nanaori -Tenjou-
TITLEJA:名乗り(天上)
SUBTITLE:--Norio Nakagata/Mirai Ninja
SUBTITLEJA:「未来忍者」より
BPM:132.05
WAVE:Nanaori -Tenjou-.ogg
OFFSET:-2.032
DEMOSTART:5.614
COURSE:Oni
LEVEL:8
SCOREINIT:640
SCOREDIFF:150
#START
3030,
#BPMCHANGE 129.48
#SCROLL 1.01
300000000000
#BPMCHANGE 157.57
#SCROLL 0.83
500000
#BPMCHANGE 131.76
#SCROLL 1
080000,
#GOGOSTART
#BPMCHANGE 153.54
1101200010112000,
1101200010112222,
#BPMCHANGE 153.39
1101200010112000,
1101200010112222,
1101200010112000,
1101200010112222,
#BPMCHANGE 153.4
1101200010112000,
#BPMCHANGE 154.65
#SCROLL 0.99
100100000100200000000000
#GOGOEND
#BPMCHANGE 127.04
#SCROLL 1.2
500000000000
#BPMCHANGE 97.99
#SCROLL 1.56
008000000000,
#BPMCHANGE 144.35
#SCROLL 1
100111200111,
100111202111,
100111200111,
100111202121,
100111200111,
100111222111,
100111200111,
200111202011,
100111200111,
100111202111,
100111200111,
100111202121,
100111200111,
100111122121,
100111200111,
#MEASURE 9/8
#BPMCHANGE 119.94
#SCROLL 1.2
202020
#BPMCHANGE 109.69
#SCROLL 1.31
101010
#BPMCHANGE 100.11
#SCROLL 1.44
100000000000000,
#MEASURE 4/4
#BPMCHANGE 102.44
#SCROLL 1
111100111100,
111100111122,
#BPMCHANGE 108.17
#SCROLL 0.94
1101200010102000,
1101200012212212,
#BPMCHANGE 102.17
#SCROLL 1
111100111100,
111100111122,
#BPMCHANGE 108.83
#SCROLL 0.93
1022102210221022,
#MEASURE 7/8
#BPMCHANGE 116.16
#SCROLL 0.87
1000000,
#MEASURE 2/4
#BPMCHANGE 152.58
#SCROLL 1
12121212,
#MEASURE 4/4
#GOGOSTART
#BPMCHANGE 153.81
1101200010112112,
#BPMCHANGE 153.39
1101200011221122,
1101200010112112,
1101200022112211,
1101200010112112,
1101200011221122,
1101200010112112,
1101200022112211,
1101202210112022,
1101202211221122,
1101202210112022,
1101202211221122,
1101202210112022,
1101202211221122,
1101202210112022,
1101202211221122,
1,
#END
COURSE:Hard
LEVEL:6
SCOREINIT:700
SCOREDIFF:190
#START
3030,
#BPMCHANGE 129.48
#SCROLL 1.01
300000
#BPMCHANGE 157.57
#SCROLL 0.83
500
#BPMCHANGE 131.76
#SCROLL 1
080,
#GOGOSTART
#BPMCHANGE 153.54
1100200010111000,
1100200010111000,
#BPMCHANGE 153.39
1100200010111000,
1100200011002000,
1100200010111000,
1100200010111000,
#BPMCHANGE 153.4
1100200011002000,
#BPMCHANGE 154.65
#SCROLL 0.99
5000
#GOGOEND
#BPMCHANGE 127.04
#SCROLL 1.2
08
#BPMCHANGE 97.99
#SCROLL 1.56
00,
#BPMCHANGE 144.35
#SCROLL 1
100111100000,
100111100111,
100111100000,
100111100111,
100111100000,
100111100111,
100111100111,
100111111100,
100111100000,
100111100111,
100111100000,
100111100111,
100111100000,
100111100111,
100111100111,
#MEASURE 9/8
#BPMCHANGE 119.94
#SCROLL 1.2
100000
#BPMCHANGE 109.69
#SCROLL 1.31
101010
#BPMCHANGE 100.11
#SCROLL 1.44
100000000000000,
#MEASURE 4/4
#BPMCHANGE 102.44
#SCROLL 1
111100222200,
111100111100,
#BPMCHANGE 108.17
#SCROLL 0.94
10201120,
10201121,
#BPMCHANGE 102.17
#SCROLL 1
111100222200,
111100111100,
#BPMCHANGE 108.83
#SCROLL 0.93
10201121,
#MEASURE 7/8
#BPMCHANGE 116.16
#SCROLL 0.87
1000000,
#MEASURE 2/4
#BPMCHANGE 152.58
#SCROLL 1
50000800,
#MEASURE 4/4
#GOGOSTART
#BPMCHANGE 153.81
1100200010111000,
#BPMCHANGE 153.39
1100200011002000,
1100200010111000,
1100200011101110,
1100200010111000,
1100200011002000,
1100200010111000,
1100200011102220,
1100200010111000,
1100200011002000,
1100200010111000,
1100200011101110,
1100200010111000,
1100200011002000,
1100200010111000,
1100200050000000,
8,
#END
COURSE:Normal
LEVEL:5
BALLOON:10,10
SCOREINIT:960
SCOREDIFF:290
#START
3030,
#BPMCHANGE 129.48
#SCROLL 1.01
300000
#BPMCHANGE 157.57
#SCROLL 0.83
500
#BPMCHANGE 131.76
#SCROLL 1
080,
#GOGOSTART
#BPMCHANGE 153.54
1100200010000000,
1100000011000000,
#BPMCHANGE 153.39
1100200010000000,
1100000011000000,
1100200010000000,
1100000011000000,
#BPMCHANGE 153.4
7,
#BPMCHANGE 154.65
#SCROLL 0.99
00000000
#GOGOEND
#BPMCHANGE 127.04
#SCROLL 1.2
0008
#BPMCHANGE 97.99
#SCROLL 1.56
0000,
#BPMCHANGE 144.35
#SCROLL 1
1120,
1121,
1120,
1121,
1120,
1121,
1120,
100100111100,
1120,
1121,
1120,
1121,
1120,
1121,
1120,
#MEASURE 9/8
#BPMCHANGE 119.94
#SCROLL 1.2
100000
#BPMCHANGE 109.69
#SCROLL 1.31
101010
#BPMCHANGE 100.11
#SCROLL 1.44
100000000000000,
#MEASURE 4/4
#BPMCHANGE 102.44
#SCROLL 1
111100100000,
111100100000,
#BPMCHANGE 108.17
#SCROLL 0.94
10201110,
10201110,
#BPMCHANGE 102.17
#SCROLL 1
111100100000,
111100100000,
#BPMCHANGE 108.83
#SCROLL 0.93
1212,
#MEASURE 7/8
#BPMCHANGE 116.16
#SCROLL 0.87
7000000,
#MEASURE 2/4
#BPMCHANGE 152.58
#SCROLL 1
80,
#MEASURE 4/4
#GOGOSTART
#BPMCHANGE 153.81
1100200010000000,
#BPMCHANGE 153.39
1100000011000000,
1100200010000000,
1100000000000000,
1100200010000000,
1100000011000000,
1100200010000000,
1100000000000000,
1100200010000000,
1100000011000000,
1100200010000000,
1100000000000000,
1100200010000000,
1100000011000000,
1100200010000000,
1100200050000000,
8,
#END
COURSE:Easy
LEVEL:3
BALLOON:10,10
SCOREINIT:970
SCOREDIFF:390
#START
3030,
#BPMCHANGE 129.48
#SCROLL 1.01
300000
#BPMCHANGE 157.57
#SCROLL 0.83
500
#BPMCHANGE 131.76
#SCROLL 1
080,
#GOGOSTART
#BPMCHANGE 153.54
1001,
1020,
#BPMCHANGE 153.39
1001,
1,
1001,
1,
#BPMCHANGE 153.4
7,
#BPMCHANGE 154.65
#SCROLL 0.99
00000000
#GOGOEND
#BPMCHANGE 127.04
#SCROLL 1.2
0008
#BPMCHANGE 97.99
#SCROLL 1.56
0000,
#BPMCHANGE 144.35
#SCROLL 1
1020,
1011,
1020,
1011,
1020,
1011,
1020,
1111,
1020,
1011,
1020,
1011,
1020,
1011,
1020,
#MEASURE 9/8
#BPMCHANGE 119.94
#SCROLL 1.2
10
#BPMCHANGE 109.69
#SCROLL 1.31
10
#BPMCHANGE 100.11
#SCROLL 1.44
10000,
#MEASURE 4/4
#BPMCHANGE 102.44
#SCROLL 1
1010,
1010,
#BPMCHANGE 108.17
#SCROLL 0.94
1210,
1210,
#BPMCHANGE 102.17
#SCROLL 1
1010,
1010,
#BPMCHANGE 108.83
#SCROLL 0.93
1212,
#MEASURE 7/8
#BPMCHANGE 116.16
#SCROLL 0.87
7000000,
#MEASURE 2/4
#BPMCHANGE 152.58
#SCROLL 1
80,
#MEASURE 4/4
#GOGOSTART
#BPMCHANGE 153.81
1001,
#BPMCHANGE 153.39
1020,
1001,
1,
1001,
1020,
1001,
1,
1001,
1020,
1001,
1020,
1001,
1020,
1001,
1020,
1,
#END