This commit is contained in:
2026-03-07 15:37:31 +09:00
parent 4b4e2b8c98
commit 60bc4e620d
110 changed files with 71338 additions and 0 deletions

369
tja/358.tja Normal file
View File

@@ -0,0 +1,369 @@
//TJADB Project
TITLE:Opa! Opa! RACER -GMT Mashup-
TITLEJA:オパオパRACER -GMT mashup-
SUBTITLE:--Shinji Hosoe (Sampling Masters)/Fantasy Zone & RIDGE RACER
SUBTITLEJA:COSIO(ZUNTATA/TAITO)
BPM:172
WAVE:Opa! Opa! RACER -GMT Mashup-.ogg
OFFSET:-1.898
DEMOSTART:7.472
COURSE:Oni
LEVEL:9
SCOREINIT:510
SCOREDIFF:130
#START
1002000000000010,
1000000001001000,
1002000000101010,
2022002022002022,
1002100010111200,
1020110200000022,
1000100101221020,
0020101102201110,
1002102220101020,
1022102010111201,
2000111120002222,
1020101102201111,
1001200000012010,
1021002010210220,
1001200000012010,
1021002010210220,
1001200000002010,
1001200011012222,
1000111120002222,
1000111122221111,
2010201120112011,
2002000000111201,
000500000000000000008000000000100100100200000100,
000500000000000000008000000000200100100200000000,
1001200000012010,
1001201000111201,
2000222210001111,
2000200011112222,
1010220101011020,
2220110202011020,
1010220101011020,
1020110202011020,
1002100010111200,
1020110200000022,
1002010010020100,
100000000200000000000000100010002000100010002000,
0404000000000000,
0111222211010110,
2111220202201111,
1001002010010020,
1001002010101020,
1002102220101020,
1022102210111205,
000000000000008000000000400000000000000000000000,
1111201111201111,
2011221111221122,
1002100010111200,
1020110200101020,
1111222211221122,
1022102210111201,
0111221112012012,
0111221112012012,
1021012010210020,
1010201101101020,
1021012010210020,
2220220101103000,
1021012010210020,
1010201101101222,
1000111120002222,
1000111122221111,//60
#GOGOSTART
2010201120112011,
2012201120111201,
1020102101201020,
1020102101201020,
2010201120112011,
2012201120111201,
2020111120202222,
1020102011112222,
1000000000001111,
1022100100000022,
1000100101221020,
0020101102201110,
1002102220101020,
1022102010111201,
1000100102112020,
2022002022002022,//76
#GOGOEND
#END
COURSE:Hard
LEVEL:8
#START
1001000000000010,
1000000010010000,
1001000000101010,
22022022,
1000200010101100,
1020110100000010,
1000100101101020,
0020101100001110,
500000000000000008000000000000100000100000200000,
1000200010101101,
1000100102202020,
0020101100001110,
1001200000012010,
1001000020020000,
1001200000012010,
1001000020020020,
1001200000002010,
1001000020020020,
34,
30401111,
22222222,
2002000000101105,
000000000000000000008000000000100000100100000500,
000000000000000000008000000000100000100100000000,
1001200000012010,
1001201000101100,
34,
30401111,
1010220101011000,
2020110202011000,
1010220101011000,
2020110202011000,
1000200010101100,
1020110100000010,
1002010010020100,
100000000200000000000000500000000000000008000000,
0404000000000000,
0110101011010110,
0110110101101000,
1001002010010020,
1001002010101020,
500000000000000008000000000000100000100000200000,
1000200010101105,
000000000000008000000000400000000000000000000000,
1110101110101110,
100000100100100000500000000000000000000008000000,
1000200010101100,
1020110100101020,
1110202011101000,
1110202011101000,
1110202011022000,
1110202011022000,
1001000020020020,
1010201101101000,
1001000020020020,
2220220101103000,
1001000020020020,
1010201101101000,
3000111030002220,
4000400010101110,//60
#GOGOSTART
22222222,
2002000000000000,
1010201101101000,
1010201101101000,
22222222,
2002000000000000,
3000111030002220,
4000400011102220,
1000000000001110,
1020100100000000,
1000100101101020,
0020101100001110,
500000000000000008000000000000100000100000200000,
1000200010101101,
1000100102202020,
2022002022002022,//76
#GOGOEND
,
,
#END
COURSE:Normal
LEVEL:6
BALLOON:10,8,17,8,8,8
#START
1001000000000010,
1000000010010000,
1001000000000000,
40040040,
1212,
1010100100000000,
1002000010020000,
1002000000101010,
500000000000000008000000000000100000100000100000,
1000100010101009,
0009,
8,
10200021,
1202,
10200021,
1202,
10200021,
1202,
33,
3330,
22202220,
2002000000500000,
000000000000000000000008000000700000000000000000,
08,
22202220,
2002000000000000,
34,
3330,
11100020,
22200010,
11100020,
22200010,
1212,
1010100100000000,
1002000010020000,
1002000050000000,
000000000000000000000008000000000000000000000000,
01101010,
01101010,
1001000020020000,
1001000020000000,
500000000000000008000000000000100000100000100000,
1000100010101005,
000000000000008000000000400000000000000000000000,
7,
0008,
1212,
1010100100000000,
500000000000000008000000000000100000100000100000,
1000100010101007,
0008,
04,
1000000020020010,
1000000010010010,
1000000020020010,
1000000010010010,
1000000020020010,
1000000010010010,
34,
3430,//60
#GOGOSTART
22202220,
2002000000500000,
000000000000000008000000000000700000000000000000,
00080110,
22201110,
2002000000000000,
34,
300000000000400000000000600000000000000000000008,
,
1010100100000000,
1002000010020000,
1002000000101010,
500000000000000008000000000000100000100000100000,
1000100010101007,
0008,
22022022,//76
#GOGOEND
,
,
#END
COURSE:Easy
LEVEL:5
BALLOON:7,6,13,5,5,5
#START
11,
1,
11,
40040040,
1210,
500000000000000000000000000008000000000000000000,
1001000010010000,
1001000000000000,
500000000000000000000008000000000000000000000000,
1000200010000009,
0009,
8,
1202,
1200,
1202,
1200,
1202,
1200,
33,
3330,
2222,
20000500,
000000000000000000000008000000700000000000000000,
08,
2222,
2,
34,
3330,
1102,
2201,
1102,
2201,
1210,
500000000000000000000000000008000000000000000000,
1001000010010000,
1001000050000000,
000000000000000000000008000000000000000000000000,
01101000,
01101000,
34,
34,
500000000000000000000008000000000000000000000000,
1000200010000005,
000000000000000000000000008000000000000000000000,
7,
0008,
1210,
500000000000000000000008000000000000000000000000,
500000000000000000000008000000000000000000000000,
1000200010002007,
0008,
04,
10000001,
1000000010010000,
10000001,
1000000010010000,
10000001,
1000000010010000,
34,
3430,//60
#GOGOSTART
2222,
20000500,
000000000000000008000000000000700000000000000000,
00800110,
2222,
2,
34,
300000000000400000000000600000000000000000000008,
,
500000000000000000000000000008000000000000000000,
1001000010010000,
1001000000000000,
500000000000000000000008000000000000000000000000,
1000200010000007,
0008,
40040040,//76
#GOGOEND
,
,
#END