This commit is contained in:
2026-03-07 15:37:31 +09:00
parent 4b4e2b8c98
commit 60bc4e620d
110 changed files with 71338 additions and 0 deletions

744
tja/362.tja Normal file
View File

@@ -0,0 +1,744 @@
//TJADB Project
TITLE:BLUE TOPAZ
TITLEJA:BLUE TOPAZ
SUBTITLE:--Takayuki Aihara/RAVE RACER
SUBTITLEJA:レイブレーサー
BPM:130.6
WAVE:BLUE TOPAZ.ogg
OFFSET:-3.846
DEMOSTART:40.591
COURSE:Oni
LEVEL:8
STYLE:Double
SCOREINIT:490
SCOREDIFF:128
#START P1
10000001,
1,
1,
112112112112,
1022102102011000,
221221221221,
2022102102011000,
1011210120001103,
,
0000102102011000,
0000102102011000,
0022,
1022102102011010,
1022102102011020,
1000200200202200,
3000200200202200,
1001202101202010,
1001202101202010,
1001202101202010,
1001202101202010,//20
#GOGOSTART
1011202101221022,
1011202101211020,
1011202101221022,
1011202101211020,
1011202101221022,
1011202101211020,
1414,//27
#GOGOEND
1000110020002020,
4000000100100103,
0000000200200204,
0000000300300300,
2000220210040000,
1022102212011022,
1021021021021010,
1022102212211010,
10004021,
#BPMCHANGE 131.38
1000121100102210,
#BPMCHANGE 130.6
1000121100102210,
1000100100102101,//39
#GOGOSTART
#BPMCHANGE 129.83
0000220210202210,
#BPMCHANGE 130.6
2011201220212010,
2011201122112211,
2011201220212010,
2210210210210210,
2021201020112012,
2021201020112012,
2021201020112010,
2210210210210210,
1011202101221022,
1011202101211020,
1011202101221022,
1011202101211020,
1011202101221022,
1011202101211020,
0404,
1122112210002020,
1002101021112020,
1002101021122020,
1002101021112020,
1002101021122020,
1002101021112020,
1002101021122020,
33,//63
#GOGOEND
1122112210002020,
4000000100100103,
0000000200200204,
0000000300300300,
112112112112,
1022102102011020,
221221221221,
2022102102011022,
1011210120001103,
#END
#START P2
10000001,
1,
1,
112112112112,
1022102102011000,
221221221221,
2022102102011000,
1011210120001103,
,
0000102102011000,
0000102102011000,
0022,
1001202101202010,
1001202101202010,
1001202101202010,
1001202101202010,
1022102102011010,
1022102102011020,
1000200200202200,
3000200200202200,//20
#GOGOSTART
1011202101221022,
1011202101211020,
1011202101221022,
1011202101211020,
1011202101221022,
1011202101211020,
1414,//27
#GOGOEND
1000110020002020,
4000000100100103,
0000000200200204,
0000000300300300,
2000220210040000,
1022102212011022,
1021021021021010,
1022102212211010,
10004021,
#BPMCHANGE 131.38
1000121100102210,
#BPMCHANGE 130.6
1000121100102210,
1000100100102101,//39
#GOGOSTART
#BPMCHANGE 129.83
0000220210202210,
#BPMCHANGE 130.6
1021201020112012,
2021201122112211,
2021201020112010,
2210210210210210,
2011201220212010,
2011201220212010,
2011201220212010,
2210210210210210,
1002101021112020,
1002101021122020,
1002101021112020,
1002101021122020,
1002101021112020,
1002101021122020,
33,
1122112210002020,
1011202101221022,
1011202101211020,
1011202101221022,
1011202101211020,
1011202101221022,
1011202101211020,
0404,//63
#GOGOEND
1122112210002020,
4000000100100103,
0000000200200204,
0000000300300300,
112112112112,
1022102102011020,
221221221221,
2022102102011022,
1011210120001103,
#END
STYLE:Single
SCOREINIT:470
SCOREDIFF:123
#START
10000001,
1,
1,
112112112112,
1022102102011000,
221221221221,
2022102102011000,
1011210120001103,
,
0000102102011000,
0000102102011000,
0022,
#SECTION
#BRANCHSTART p,50,80
#N
1020100102011010,
1020100102011020,
1000200200202200,
0000200200202200,
1020100102011010,
1020100102011020,
1000200200202200,
3000200200202200,
#E
1020102102011010,
1020102102011020,
1000200200202200,
0000200200202200,
1020102102011010,
1020102102011020,
1000200200202200,
3000200200202200,
#M
1221102102211020,
1221102102211020,
1000200202102100,
0000200201201200,
1221102102211020,
1221102102211020,
1000200202102100,
3000200201201200,
#GOGOSTART
#SECTION
#BRANCHSTART p,50,80
#N
1001102101201020,
1001102101201000,
1001102101201020,
1001102101201000,
1001102101201020,
1001102101201000,
1414,
#GOGOEND
1000110020002020,
2000000100100101,
0000000200200202,
0000000100100105,
000000000000000000000000000000008000000000000000,
#E
1001102101201022,
1001102101211000,
1001102101201022,
1001102101211000,
1001102101201022,
1001102101211000,
1414,
#GOGOEND
1000110020002020,
4000000100100103,
0000000200200204,
0000000100100105,
000000000000000000000000000000008000000000000000,
#M
1011202101221022,
1011202101211020,
1011202101221022,
1011202101211020,
1011202101221022,
1011202101211020,
1414,
#GOGOEND
1000110020002020,
4000000100100103,
0000000200200204,
0000000300300300,
2000220210040000,
#SECTION
#BRANCHSTART p,50,80
#N
1011100011011000,
1011011011011000,
1011100011011010,
10003021,
#BPMCHANGE 131.38
1000101100101100,
#BPMCHANGE 130.6
1000101100101100,
1000100100101101,
#GOGOSTART
#BPMCHANGE 129.83
0000110110102000,
#E
1022100012011000,
1021021021021000,
1022100012011010,
10003021,
#BPMCHANGE 131.38
1000111100102100,
#BPMCHANGE 130.6
1000111100102100,
1000100100102101,
#GOGOSTART
#BPMCHANGE 129.83
0000220210102000,
#M
1022102212011022,
1021021021021010,
1022102212211010,
10004021,
#BPMCHANGE 131.38
1000121100102210,
#BPMCHANGE 130.6
1000121100102210,
1000100100102101,//M39
#GOGOSTART
#BPMCHANGE 129.83
0000220210202210,
#BPMCHANGE 130.6
#SECTION
#BRANCHSTART p,50,80
#N
2000201120202000,
2000201120112011,
2000201120202010,
2010110110110110,
2000201120202000,
2000201120202011,
2000201120202010,
2010110110110110,
#E
2011201120202010,
2011201120112211,
2011201120202010,
2010210210210210,
2011201120202010,
2011201120202011,
2011201120202010,
2010210210210210,
#M
2011201220212010,
2011201122112211,
2011201220212010,
2210210210210210,
2011201220212110,
2011201220212110,
2011201220212110,
2210210210210210,
#SECTION
#BRANCHSTART p,50,80
#N
1001102101201020,
1001102101201000,
1001102101201020,
1001102101201000,
1001102101201020,
1001102101201000,
1414,
0022,
#E
1001102101201020,
1001102101211000,
1001102101201020,
1001102101211000,
1001102101201020,
1001102101211000,
1414,
1111111110004040,
#M
1011202101221022,
1011202101211020,
1011202101221022,
1011202101211020,
1011202101221022,
1011202101211020,
1414,
1122112210002020,
#SECTION
#BRANCHSTART p,50,80
#N
1001102101201020,
1001102101201000,
1001102101201020,
1001102101201000,
1001102101201020,
1001102101201000,
1414,
#GOGOEND
1111111110002020,
4000000100100103,
0000000200200204,
0000000300300300,
#E
1001102101221020,
1001102101211020,
1020300101003020,
1001102101211020,
1001102101221020,
1001102101211020,
1414,
#GOGOEND
1122112210002020,
4000000100100103,
0000000200200204,
0000000300300300,
#M
1011202101221022,
1011202101211020,
1020302101203020,
1011202101211020,
1011202101221022,
1011202101211020,
1414,
#GOGOEND
1122112210002020,
4000000100100103,
0000000200200204,
0000000300300300,
#SECTION
#BRANCHSTART p,50,80
#N
500000000000000008000000200000000000200000000000,
1020100102011000,
111111111111,
1020100102011020,
1010110020000303,
#E
111111111111,
1022102102011000,
222222222222,
2020102102011020,
1010110120001103,
#M
112112112112,
1022102102011020,
221221221221,
2022102102011022,
1011210120001103,
#BRANCHEND
#END
COURSE:Hard
LEVEL:7
#START
10000001,
1,
1,
500000000000000008000000200000000000200000000000,
1020100102011000,
111111111111,
1020100102011000,
1010110020000303,
,
0000100102011000,
0000100102011000,
0022,
1020100102011010,
1020100102011020,
1000200200202200,
0000200200202200,
1020100102011010,
1020100102011020,
1000200200202200,
3000200200202200,//20
#GOGOSTART
1001102101201020,
1001102101201000,
1001102101201020,
1001102101201000,
1001102101201020,
1001102101201000,
1414,//27
#GOGOEND
1000110020002020,
2000000100100101,
0000000200200202,
0000000100100105,
000000000000000000000000000000008000000000000000,
1011100011011000,
1011011011011000,
1011100011011010,
10003021,
1000101100101100,
1000101100101100,
1000100100101101,//39
#GOGOSTART
0000110110102000,
2000201120202000,
2000201120112011,
2000201120202010,
2010110110110110,
2000201120202000,
2000201120202011,
2000201120202010,
2010110110110110,
1001102101201020,
1001102101201000,
1001102101201020,
1001102101201000,
1001102101201020,
1001102101201000,
1414,
0022,
1001102101201020,
1001102101201000,
1001102101201020,
1001102101201020,
1001102101201020,
1001102101201000,
1414,//63
#GOGOEND
1111111110002020,
4000000100100103,
0000000200200204,
0000000300300300,
500000000000000008000000200000000000200000000000,
1020100102011000,
111111111111,
1020100102011020,
1010110020000303,
,
#END
COURSE:Normal
LEVEL:5
#START
10000001,
1,
1,
0022,
1010100100100000,
500000000000000000000000000000000008000000000000,
1010100100100000,
11102000,
3,
0101,
0022,
0022,
1010100100100000,
1010100100100000,
0102,
0102,
1010100100100000,
1010100100100000,
0102,
3102,//20
#GOGOSTART
11001120,
11001120,
0202,
10222000,
11001120,
11001120,
0404,//27
#GOGOEND
0022,
4000000100100003,
0000000200200004,
0000000100100005,
000000000000000000000000000000000008000000000000,
10101011,
1111,
10101011,
10001021,
1000001100000010,
1000001100000010,
1111,//39
#GOGOSTART
500000000000000000000000000000000008000000000000,
2222,
20202220,
2222,
20202220,
10202220,
2222,
20202220,
10202220,
11001120,
11001120,
0202,
10222000,
11001120,
11001120,
0304,
0022,
11201120,
11201120,
0202,
10222000,
11201120,
11201120,
0304,//63
#GOGOEND
1122,
4000000100100003,
0000000200200004,
,
3022,
1010100100100000,
500000000000000000000000000000000008000000000000,
1010100100100000,
1010100020000003,
,
#END
COURSE:Easy
LEVEL:4
#START
10000001,
1,
1,
500000000000000000000000000000000008000000000000,
1110,
500000000000000000000000000000000008000000000000,
1111,
1120,
3,
0101,
,
0022,
10001100,
10001100,
0201,
0201,
10001100,
10001100,
0201,
0201,//20
#GOGOSTART
11001100,
11001100,
0101,
0110,
11001100,
11001100,
0303,//27
#GOGOEND
400000000000000000000500000000000008000000000300,
000000000000000000000500000000000008000000000400,
0000000000000005,
000000000000000000000000000000008000000000000000,
1110,
2220,
1111,
10000001,
10000001,
1,
1111,//39
#GOGOSTART
500000000000000000000000000000000008000000000000,
2222,
2220,
2222,
2220,
1222,
2220,
2222,
2220,
11001100,
11001100,
0202,
0110,
11001100,
11001100,
0303,
,
11001100,
11001100,
0212,
0110,
11001100,
11001100,
0303,//63
#GOGOEND
,
400000000000000000000500000000000008000000000300,
000000000000000000000500000000000008000000000400,
,
3,
1110,
5008,
1111,
1000100020000003,
,
#END