This commit is contained in:
2026-03-07 15:37:31 +09:00
parent 4b4e2b8c98
commit 60bc4e620d
110 changed files with 71338 additions and 0 deletions

346
tja/389.tja Normal file
View File

@@ -0,0 +1,346 @@
//TJADB Project
TITLE:SORA-I Earthrise
TITLEJA:SORA-I アースライズ
SUBTITLE:--Satoshi Ishikawa
SUBTITLEJA:
BPM:134
WAVE:SORA-I Earthrise.ogg
OFFSET:-1.898
DEMOSTART:71.290
COURSE:Oni
LEVEL:8
SCOREINIT:720
SCOREDIFF:198
#START
,
,
4,
3,
,
,
4,
10002001,
12,
10002001,
10012010,
1111,
1111,
1202,
500000000000000000000000000000000000000008000000,
1000200011021120,
1122000011021120,
1000200011021120,
1122000011021120,
1000200011021120,
1122000011021120,
1000200011021120,
100000000100200000100000100200100000202020200200,
1000200011021121,
1122021011021120,
1000200011021121,
1122021011021120,
1000200011021121,
1122021011021120,
1000200011021121,
100000200100000000200000100200100000202020200200,
1012001020000010,
1012001020000010,
1012001020121010,
100000000000200000100000100200100000202020200200,
1021001020000010,
1021001020000010,
1021001020212020,
100000000000200000200200200000200200202020200200,//39
#GOGOSTART
1001201011012010,
1101201211012010,
1001201011012010,
1101201211012010,
1101221011012210,
1101221011012210,//45
#GOGOEND
10210212,
200200100200200200100200200200100200202020200200,//47
#GOGOSTART
2002102022021020,
2202102122021020,
2002102022021020,
2202102122021020,
2202112022021120,
2202112022021120,
2212102122121021,
200200100200100100200100200200100200101010202020,//55
#GOGOEND
1202,
0202,
0202,
0202,
0202,
0202,
0202,
00200044,
#END
COURSE:Hard
LEVEL:7
BALLOON:12
SCOREINIT:830
SCOREDIFF:210
#START
,
,
4,
3,
,
,
4,
10002001,
12,
10002001,
10012010,
1111,
1111,
1202,
0000000011101111,
1000200011002000,
1000200011022000,
1000200011002000,
1000200011022020,
1000200011002000,
1000200011022000,
1000200011002000,
1002201011022020,
1000200011002000,
1000200011022020,
1000200011002000,
1000200011022020,
1000200011002000,
1000200011022020,
1000200011002000,
500000000000000000000000000000000000000008000000,
1002001020000010,
1002001020000000,
1002001020000010,
1002001011102000,
1002001020000010,
1002001020000000,
1002001020000010,
1000202220222000,//39
#GOGOSTART
1002201011022000,
1102201011022000,
1002201011022000,
1102201011202000,
1002201011022000,
1102201011022000,//45
#GOGOEND
22120212,
7008,//47
#GOGOSTART
1102201011022000,
1102201011202000,
1102201011022000,
1102201011202000,
1102201011022000,
1102201011202000,
34,
600000000000000000000000000000000000000008000000,//55
#GOGOEND
3202,
0202,
0202,
0202,
0202,
0202,
0202,
00200022,
,
,
,
,
#END
COURSE:Normal
LEVEL:5
BALLOON:10,12
SCOREINIT:1090
SCOREDIFF:300
#START
,
,
4,
3,
,
,
4,
10002001,
12,
10002001,
12,
1111,
1111,
1700,
00000800,
1202,
1202,
1202,
10200022,
1202,
1202,
1202,
10210022,
1202,
1202,
1202,
10200022,
1202,
1202,
1202,
100000000000200000100000500000000000000008000000,
10002001,
12,
10002001,
10201120,
10002001,
12,
10002001,
100000000000200000000000500000000000000008000000,//39
#GOGOSTART
10201120,
10200120,
10201120,
10200120,
10201120,
10200120,//45
#GOGOEND
7,
00000800,//47
#GOGOSTART
10200120,
11200020,
10200120,
11200020,
10200120,
11200020,
34,
600000000000000000000000000000000000000008000000,//55
#GOGOEND
0202,
0202,
0202,
0202,
0202,
0202,
0202,
0202,
,
,
,
,
#END
COURSE:Easy
LEVEL:3
BALLOON:8,10
SCOREINIT:840
SCOREDIFF:260
#START
,
,
4,
3,
,
,
4,
12,
12,
12,
12,
1111,
1111,
1700,
00000800,
1200,
1200,
1200,
1202,
1,
1200,
1200,
1200,
1202,
1200,
1202,
1200,
1202,
1200,
1202,
1200,
12,
12,
12,
1200,
12,
12,
12,
500000000000000000000000000008000000000000000000,//39
#GOGOSTART
1202,
1202,
1202,
1202,
1202,
1202,//45
#GOGOEND
7,
00000800,//47
#GOGOSTART
1201,
1202,
1201,
1202,
1201,
1202,
1201,
500000000000000000000000000000000000000008000000,//55
#GOGOEND
0202,
0202,
0202,
0202,
0202,
0202,
0202,
0202,
,
,
,
,
#END