This commit is contained in:
2026-03-07 15:37:31 +09:00
parent 4b4e2b8c98
commit 60bc4e620d
110 changed files with 71338 additions and 0 deletions

383
tja/390.tja Normal file
View File

@@ -0,0 +1,383 @@
//TJADB Project
TITLE:SORA-II Gliese 581
TITLEJA:SORA-II グリーゼ581
SUBTITLE:--Ryuuichi Takada
SUBTITLEJA:
BPM:144
WAVE:SORA-II Gliese 581.ogg
OFFSET:-3.437
DEMOSTART:73.432
COURSE:Oni
LEVEL:7
BALLOON:15
SCOREINIT:540
SCOREDIFF:140
#START
2222,
101011100000,
102021101201,
102021100200,
102021101201,
102021121121,
102021101201,
102021100200,
102021101202,
111200221221,
101210212102,
101210212111,
101210212102,
101210212122,
102120122102,
102120121221,
102120122102,
102201202201,
202022202022,
201022201022,
201021201021,
201022101012,
200211100200,
100221100200,
100211100200,
211211200101,
102022102021,
102022101202,
102021101210,
102021121121,
102021102022,
102021101202,
102021101201,
222100122122,
102021201021,
102021200100,
102021101202,
102021121121,
101012102012,
201012102120,
100000002000000020001000200200200100100700000000,
0008,
#GOGOSTART
101222101212,
101202101222,
102111202121,
202101201222,
102121201212,
102101201222,
100000400101,
101202101201,
100000400101,
102101202101,
100000400101,
101211101211,
#GOGOEND
102021202012,
102021201211,
#GOGOSTART
101222101212,
101202101222,
102111202121,
202101201222,
101212102121,
201202101222,
100000400101,
101202101201,
100000400101,
102101202101,
100000400101,
101211101222,
#GOGOEND
102012102021,
202012102102,
102021202012,
102021200000,
#END
COURSE:Hard
LEVEL:7
BALLOON:20,20,10
SCOREINIT:590
SCOREDIFF:150
#START
33,
333300,
102022200000,
102022200200,
102022200000,
102022200200,
102022100000,
102022100200,
102022100222,
200200222200,
102011100000,
102011100200,
102011100000,
102011100200,
102012100000,
102012100200,
102012100200,
3434,
7,
0008,
7,
0008,
300221100200,
100201100000,
100221100200,
3440,
102022100000,
102022100100,
102022200000,
102022200100,
102012100000,
102012101100,
102022200111,
100200111100,
102022202022,
202022200100,
102022200100,
102022200100,
201022201022,
201022202200,
102022200700,
0008,//42
#GOGOSTART
100101102201,
101101100202,
100101102201,
101101100202,
100202201102,
202202200200,
300000400101,
1212,
300000400101,
1212,
300000400101,
100000400022,//54
#GOGOEND
202011101022,
202011100200,//56
#GOGOSTART
100101101201,
101101100202,
100101102101,
101101100202,
100202201202,
202202200200,
300000400101,
1212,
300000400101,
1212,
300000400101,
100000400011,//68
#GOGOEND
101022202011,
102022201201,
202022202022,
202022200000,
,
,
,
#END
COURSE:Normal
LEVEL:3
BALLOON:5,8,8,30,8,10,8,10
SCOREINIT:920
SCOREDIFF:200
#START
33,
78,
11,
1110,
7,
8,
11,
1110,
7,
8,
1001,
1002,
1001,
1022,
1002,
1001,
1002,
1212,
9,
,
0900,
8,
1210,
11,
1210,
11,
1202,
1202,
7,
8,
1202,
1202,
17,
0008,
1102,
1102,
7,
8,
1201,
1202,
17,
0008,//42
#GOGOSTART
1112,
1110,
1112,
1110,
2221,
2220,
34,
1102,
34,
1102,
34,
600000000000000000000000000008000000000000000000,//54
#GOGOEND
1210,
3430,//56
#GOGOSTART
1112,
1110,
2221,
2220,
1112,
1110,
34,
1102,
34,
1102,
34,
600000000000000000000000000008000000000000000000,//68
#GOGOEND
1210,
3430,
6,
000000000000000000000008000000000000000000000000,
,
,
,
#END
COURSE:Easy
LEVEL:3
BALLOON:6,6,20,6,6,6,6
SCOREINIT:1080
SCOREDIFF:350
#START
33,
500000000000000000000008000000000000000000000000,
1,
1,
7,
8,
1,
1,
7,
8,
1,
11,
1,
12,
1,
11,
1,
11,
9,
,
0900,
8,
3,
11,
1,
11,
3,
1,
7,
8,
1,
1,
17,
08,
1,
1,
7,
8,
1,
1,
17,
08,//42
#GOGOSTART
11,
1110,
11,
1110,
22,
2220,
500000000000000000000008000000000000000000000000,
11,
500000000000000000000008000000000000000000000000,
11,
600000000000000000000008000000000000000000000000,
33,//54
#GOGOEND
11,
33,//56
#GOGOSTART
11,
1110,
11,
1110,
22,
2220,
500000000000000000000008000000000000000000000000,
11,
500000000000000000000008000000000000000000000000,
11,
600000000000000000000008000000000000000000000000,
33,//68
#GOGOEND
11,
33,
6,
000000000000000000000008000000000000000000000000,
,
,
,
#END