This commit is contained in:
2026-03-07 15:37:31 +09:00
parent 4b4e2b8c98
commit 60bc4e620d
110 changed files with 71338 additions and 0 deletions

591
tja/391.tja Normal file
View File

@@ -0,0 +1,591 @@
//TJADB Project
TITLE:SORA-VI Hinotori
TITLEJA:SORA-VI 火ノ鳥
SUBTITLE:--Hisui
SUBTITLEJA:
BPM:169
WAVE:SORA-VI Hinotori.ogg
OFFSET:-3.194
DEMOSTART:17.395
COURSE:Oni
LEVEL:9
SCOREINIT:480
SCOREDIFF:125
#START
#MEASURE 5/4
1021120101,
1021120101,
1021120101,
1021120101,
1020100400,
1020100400,
10201004
#BPMCHANGE 170.3
#SCROLL 0.99
01,
#BPMCHANGE 169
#SCROLL 1
10002000222210221110,
#GOGOSTART
10002011102010200010,
10002011101000221020,
10002011201000221020,
10002011201000100010,
50000000000000000000000000000008000000001000100050000000000000000000000000000000,
0000000000000000000000000000000800000000000000000000000020002000
#GOGOEND
1000100010000000,//14
#GOGOSTART
10002011102010200010,
10002011101000221020,
10002011201000221020,
10002011201000100010,
50000000000000000000000000000008000000001000100050000000000000000000000000000000,
00000000000000000000000000000000000000000000000800000000200020002000200010000000,//20
#GOGOEND
#MEASURE 4/4
1000111010200020,
#MEASURE 2/4
00221020,
#MEASURE 4/4
1000112010200020,
#MEASURE 2/4
00221020,
#MEASURE 5/4
10001120102000200011,
#MEASURE 4/4
2022202022211120,
#MEASURE 2/4
0202,
#MEASURE 4/4
1000112010200040,
#MEASURE 2/4
00221020,
#MEASURE 4/4
1000202000101110,
#MEASURE 2/4
20111120,//31
#GOGOSTART
#MEASURE 3/4
121022110210,
121022110210,
121112111211,
102022102211,//35
#GOGOEND
#MEASURE 5/4
1020200200,
2020200200,
2020200202,
20002000201012112101,
1002102121,
10002010000020102211,
1002102121,
10021010000020102211,
10202012020210211020,
10012002101120110211,
10202012020210102021,
10202011011120121112,//47
#GOGOSTART
10122011201220112012,
12102110221021102210,
20122011201220112012,
20022210022110021110,
10122011201220112012,
12102110221021102210,
20122011201220112012,
20022210022110021110,//55
#GOGOEND
30221,
10221,
10221,
100000200202202,
10221,
100000000000200000222000200020,
100200102121211,
#MEASURE 3/4
500000000000000000000000000000000000000800000000,
221221221,//64
#GOGOSTART
101100200,
101100200,
101100211,
101100221,
112,
112,
500000000000000000000000000000000000000000000008000000000000100010001000,//70
#GOGOEND
102204000,//72
#GOGOSTART
101100201,
101100201,
101100211,
102121211,
100100221,
112,
5,
000000000000000800000000000000000000000000000000,//80
#MEASURE 5/4
#GOGOEND
221221221212211,
221221221212211,//82
#GOGOSTART
212122212122122,
212122212122122,
#MEASURE 3/4
110110011,
110110403,
011101110,//87
#GOGOEND
3,
#END
COURSE:Hard
LEVEL:7
BALLOON:10,22
SCOREINIT:610
SCOREDIFF:150
#START
#MEASURE 5/4
1011120101,
1011120101,
1011120101,
1011120101,
1020100200,
1020100200,
1020100201,
10000000000000002000000000000000500000000000000000000000000000080000000000000000,//8
#GOGOSTART
10001010202000100011,
1010220221,
10001000202000100011,
1010220101,
50000000000000000000000000000008000000001000100050000000000000000000000000000000,
0000000000000000000000000000000800000000000000000000000000000000
#GOGOEND
0000000000000000,//14
#GOGOSTART
10001010202000200011,
1010220221,
10001000202000100011,
1010220101,
50000000000000000000000000000008000000001000100050000000000000000000000000000000,
00000000000000000000000000000000000000000000000800000000000000000000000010000000,//20
#GOGOEND
#MEASURE 4/4
10121202,
#MEASURE 2/4
0212,
#MEASURE 4/4
10121202,
#MEASURE 2/4
0212,
#MEASURE 5/4
1012120201,
#MEASURE 4/4
7,
#MEASURE 2/4
8001,
#MEASURE 4/4
10121202,
#MEASURE 2/4
0212,
#MEASURE 4/4
10220110,
#MEASURE 2/4
0400,//30
#GOGOSTART
#MEASURE 3/4
111000000000,
111000000000,
111100111100,
600000000000000000000000000000080000000000000000,//32
#GOGOEND
#MEASURE 5/4
3,
,
,
,
1001102111,
10001010000020101111,
1001102111,
10001010000020101111,
1002102121,
10002010001020101111,
1002102121,
10002010001020101111,//47
#GOGOSTART
10222010001022201000,
10222010001022201000,
10222010001022201011,
10002220001110002220,
10222010001022201000,
10222010001022201000,
10222010001022201011,
10002220001110004000,//55
#GOGOEND
30221,
10221,
10221,
100000200202201,
10221,
100000200220201,
10221,
#MEASURE 3/4
5,
000000000000000800000000000000000000000000000000,//64
#GOGOSTART
101100100,
101100100,
101100101,
100200221,
112,
112,
500000000000000000000000000000080000000000000000,//71
#GOGOEND
400004000,//72
#GOGOSTART
101100100,
101100100,
101100101,
122,
100100221,
112,
5,
000000000000000800000000000000000000000000000000,//80
#MEASURE 5/4
#GOGOEND
3,
,//82
#GOGOSTART
101101102202201,
102201102201100,
#MEASURE 3/4
9,
,
09,//86
#GOGOEND
8,//410combo
#END
COURSE:Normal
LEVEL:5
BALLOON:8,19
SCOREINIT:650
SCOREDIFF:230
#START
#MEASURE 5/4
1010110200,
1010110200,
1010110200,
1010110200,
1020100200,
1020100200,
1020100201,
10000000000000002000000000000000500000000000000000000000000000080000000000000000,//8
#GOGOSTART
1010010101,
1010010101,
1010010101,
1010010101,
50000000000000000000000000000008000000000000000050000000000000000000000000000000,
000000000000000000000000000000080000000000000000
#GOGOEND
0000000000000000,//14
#GOGOSTART
1010020201,
1010020201,
1010020201,
1010020201,
50000000000000000000000000000008000000000000000050000000000000000000000000000000,
00000000000000000000000000000000000000000000000800000000000000000000000010000000,//20
#GOGOEND
#MEASURE 4/4
10020202,
#MEASURE 2/4
0001,
#MEASURE 4/4
10020202,
#MEASURE 2/4
0001,
#MEASURE 5/4
1002020200,
#MEASURE 4/4
7,
#MEASURE 2/4
8001,
#MEASURE 4/4
10020202,
#MEASURE 2/4
0001,
#MEASURE 4/4
10220110,
#MEASURE 2/4
0400,//30
#GOGOSTART
#MEASURE 3/4
3,
3,
33,
600000000000000000000000000000080000000000000000,//33
#GOGOEND
#MEASURE 5/4
3,
,
,
,
1002101010,
1002101010,
1002101010,
1002101010,
1002102010,
1002102010,
1002102010,
1002102010,//44
#GOGOSTART
1022011010,
1022011010,
1022011010,
1022011010,
1022011020,
1022011020,
1022011020,
1022011040,//52
#GOGOEND
30220,
10220,
10220,
10220,
30221,
10221,
10221,
#MEASURE 3/4
5,
000000000000000800000000000000000000000000000000,//61
#GOGOSTART
110,
110,
111,
1,
112,
112,
500000000000000000000000000000080000000000000000,//68
#GOGOEND
4,//69
#GOGOSTART
110,
110,
111,
1,
112,
112,
5,
000000000000000800000000000000000000000000000000,//77
#MEASURE 5/4
#GOGOEND
3,
,//79
#GOGOSTART
12144,
12144,
#MEASURE 3/4
9,
,
09,//84
#GOGOEND
8,
#END
COURSE:Easy
LEVEL:5
BALLOON:6,15
SCOREINIT:520
SCOREDIFF:160
#START
#MEASURE 5/4
1010100200,
1010100200,
1010100200,
1010100200,
1020100200,
1020100200,
1020100200,
10000000000000002000000000000000500000000000000000000000000000080000000000000000,//8
#GOGOSTART
1010010100,
1010010100,
1010010100,
1010010100,
50000000000000000000000000000008000000000000000050000000000000000000000000000000,
000000000000000000000000000000080000000000000000
#GOGOEND
0000000000000000,//14
#GOGOSTART
1010020200,
1010020200,
1010020200,
1010020200,
50000000000000000000000000000008000000000000000050000000000000000000000000000000,
00000000000000000000000000000000000000000000000800000000000000000000000000000000,//20
#GOGOEND
#MEASURE 4/4
30020202,
#MEASURE 2/4
,
#MEASURE 4/4
30020202,
#MEASURE 2/4
,
#MEASURE 5/4
3002020200,
#MEASURE 4/4
7,
#MEASURE 2/4
8,
#MEASURE 4/4
30020202,
#MEASURE 2/4
,
#MEASURE 4/4
30040030,
#MEASURE 2/4
0400,//30
#GOGOSTART
#MEASURE 3/4
3,
3,
33,
600000000000000000000000000000080000000000000000,//33
#GOGOEND
#MEASURE 5/4
3,
,
,
,
10101,
10101,
10101,
10101,
10201,
10201,
10201,
10201,//44
#GOGOSTART
1002001010,
1002001010,
1002001010,
1002001010,
1002001020,
1002001020,
1002001020,
1002003040,//52
#GOGOEND
30020,
10020,
10020,
10020,
30220,
10220,
10220,
#MEASURE 3/4
5,
000000000000000800000000000000000000000000000000,//61
#GOGOSTART
110,
110,
111,
1,
110,
110,
500000000000000000000000000000080000000000000000,//68
#GOGOEND
4,//69
#GOGOSTART
110,
110,
111,
1,
110,
110,
5,
000000000000000000000000000000080000000000000000,//77
#MEASURE 5/4
#GOGOEND
3,
,//79
#GOGOSTART
11144,
11144,
#MEASURE 3/4
9,
,
09,//84
#GOGOEND
8,
#END