update
This commit is contained in:
603
tja/393.tja
Normal file
603
tja/393.tja
Normal file
@@ -0,0 +1,603 @@
|
||||
//TJADB Project
|
||||
TITLE:Souryuu no Ran
|
||||
TITLEJA:双竜ノ乱
|
||||
SUBTITLE:--Tatsh a.k.a. Zeami
|
||||
SUBTITLEJA:世阿弥
|
||||
BPM:320
|
||||
WAVE:Souryuu no Ran.ogg
|
||||
OFFSET:-1.818
|
||||
DEMOSTART:86.940
|
||||
|
||||
COURSE:Edit
|
||||
LEVEL:10
|
||||
|
||||
STYLE:Double
|
||||
SCOREINIT:600
|
||||
SCOREDIFF:160
|
||||
|
||||
|
||||
#START P1
|
||||
|
||||
|
||||
#MEASURE 8/4
|
||||
#SCROLL 0.5
|
||||
0011103030003000,
|
||||
4000000000404022,
|
||||
20200021,
|
||||
00200022,
|
||||
00200021,
|
||||
00000000200000001001200002002020,
|
||||
20010100,
|
||||
1000001000100002,
|
||||
10010101,
|
||||
10000000000010000000000010100202,
|
||||
11112222,
|
||||
12112112,
|
||||
11112222,
|
||||
12112100,
|
||||
10002000000020002002100020000000,
|
||||
20002000100020002002100020002000,
|
||||
22212202,
|
||||
10002000200000002001200120200102,
|
||||
02220222,
|
||||
02220020,
|
||||
02220222,
|
||||
00002000200020000000202200220000,
|
||||
0021002000210020,
|
||||
02120210,
|
||||
2002100020021000,
|
||||
00002222000000220022111100002200,
|
||||
20004001,
|
||||
01004000,
|
||||
03300030,
|
||||
00330330,
|
||||
#MEASURE 6/4
|
||||
330300,
|
||||
#MEASURE 8/4
|
||||
00200222,
|
||||
02020222,
|
||||
02020222,
|
||||
02022000,
|
||||
01010211,
|
||||
1000100010010000,
|
||||
0100010010020000,
|
||||
1111222200100212,
|
||||
0000000000020000,
|
||||
0000000000020000,
|
||||
0000000000020000,
|
||||
0000000000000201,
|
||||
1000100010020000,
|
||||
1000100010020010,
|
||||
00000000200200202000001010001000,
|
||||
00002000200020001000001010000101,
|
||||
00000000200000000000200000000002,
|
||||
00000000200000000000200000000002,
|
||||
00000000200000000000000000000002,
|
||||
00000000200000020000200000000002,
|
||||
00000000000020000000000000000002,
|
||||
0000100200010002,
|
||||
0020100200001002,
|
||||
22010010,
|
||||
01001222,
|
||||
00000000000000002222000011110000,
|
||||
|
||||
#GOGOSTART
|
||||
10000000100022200000000000002220,
|
||||
00000000100022000000222010100000,
|
||||
00000000101022200000000000002220,
|
||||
00000000000000000011000000000000,
|
||||
20000000200011102000000020201110,
|
||||
00001111000011000000111000001111,
|
||||
2000220020002000,
|
||||
00001111000011000000110011001100,
|
||||
0000000022002200,
|
||||
0022002222002200,
|
||||
10000002100100020000100020001000,
|
||||
10010020100100201000000011110000,
|
||||
00100020002000100001002000202002,
|
||||
0000000000000220,
|
||||
20000000200000000101000022220000,
|
||||
00002222000000111000222210220011,
|
||||
|
||||
#GOGOEND
|
||||
00000004,
|
||||
00000000000000000000020200200010,
|
||||
0000000000002220,
|
||||
00000022,
|
||||
2222,
|
||||
20000000200000001020102010201200,
|
||||
4,
|
||||
|
||||
|
||||
#END
|
||||
|
||||
|
||||
#START P2
|
||||
|
||||
|
||||
#MEASURE 8/4
|
||||
#SCROLL 0.5
|
||||
0022204040004000,
|
||||
30030030,
|
||||
10000100,
|
||||
10000100,
|
||||
10000100,
|
||||
10000000000010000010000020200200,
|
||||
10200022,
|
||||
00000000200000000000000020002002,
|
||||
0202,
|
||||
00002000200000002000200002021010,
|
||||
22221111,
|
||||
,
|
||||
22221111,
|
||||
00000022,
|
||||
0000100002000010,
|
||||
0000000002000000,
|
||||
0001,
|
||||
00000000000010000210021002021020,
|
||||
1002000010020000,
|
||||
1002000010200020,
|
||||
1002000010020000,
|
||||
1002000010001010,
|
||||
2222,
|
||||
2002000020000020,
|
||||
02020202,
|
||||
22220000221122002200000022220022,
|
||||
10003004,
|
||||
04003000,
|
||||
04403040,
|
||||
01221221,
|
||||
#MEASURE 6/4
|
||||
221200,
|
||||
#MEASURE 8/4
|
||||
1010001010020000,
|
||||
1000100010020000,
|
||||
1100100010020000,
|
||||
1000200000211010,
|
||||
2000200020020000,
|
||||
02020202,
|
||||
1022102200202020,
|
||||
20202020101010101000000010020002,
|
||||
12121210,
|
||||
12121210,
|
||||
12121210,
|
||||
10002000200010002000201020021001,
|
||||
02020220,
|
||||
02020220,
|
||||
20002000002020020000200000000000,
|
||||
2010101020222011,
|
||||
2010001020011022,
|
||||
20001000000010222000001010002020,
|
||||
2010001020111022,
|
||||
2010001220011022,
|
||||
1020100010201022,
|
||||
10002000000020021000200010002002,
|
||||
10000000000020021000200000002002,
|
||||
11121121,
|
||||
12112111,
|
||||
22222222111111110000111100002222,
|
||||
|
||||
#GOGOSTART
|
||||
00002222000000001000222210100000,
|
||||
10002222000000001010000000002222,
|
||||
10002222000000001000222210000000,
|
||||
10002222100022001000221022102211,
|
||||
00001111000000000000111100000000,
|
||||
2000200022002200,
|
||||
00001111000011100000111100001110,
|
||||
20000000200000002022002000200022,
|
||||
10001000202022200000101000001010,
|
||||
10100000101000000200111002001110,
|
||||
0022012222000200,
|
||||
00102002001020020000222200002222,
|
||||
10012002200210011010200220020020,
|
||||
10002020100020001000200012020212,
|
||||
00102010001020101010222200002222,
|
||||
11110000222211002222100022101100,
|
||||
|
||||
#GOGOEND
|
||||
2000102010002220,
|
||||
10002000200010002000200200201010,
|
||||
21212104,
|
||||
1010201010200200,
|
||||
1222122212221222,
|
||||
1222122220202022,
|
||||
1,
|
||||
|
||||
|
||||
#END
|
||||
|
||||
|
||||
COURSE:Oni
|
||||
LEVEL:10
|
||||
SCOREINIT:380
|
||||
SCOREDIFF:93
|
||||
|
||||
|
||||
#START
|
||||
|
||||
|
||||
#MEASURE 8/4
|
||||
#SCROLL 0.5
|
||||
0022203030004000,
|
||||
3000003000404022,
|
||||
10200121,
|
||||
10200122,
|
||||
10200121,
|
||||
10000000200010001011200022202220,
|
||||
10210122,
|
||||
10000000200010000000100020002022,
|
||||
10210121,
|
||||
10002000200010002000200012121212,
|
||||
11112222,
|
||||
12112112,
|
||||
11112222,
|
||||
12112122,
|
||||
10002000100020002022100020001000,
|
||||
20002000100020002022100020002000,
|
||||
22212212,
|
||||
10002000200010002211221122221122,
|
||||
1022202010222020,
|
||||
1022202010202020,
|
||||
1022202010222020,
|
||||
10002020200020001000202210221000,
|
||||
2021202020212020,
|
||||
2022102020201020,
|
||||
2022102020221020,
|
||||
22222222221122222222111122222222,
|
||||
10001004,
|
||||
04001000,
|
||||
04401020,
|
||||
01221221,
|
||||
#MEASURE 6/4
|
||||
221400,
|
||||
#MEASURE 8/4
|
||||
1010201010222020,
|
||||
1020102010222020,
|
||||
1120102010222020,
|
||||
1020202020211010,
|
||||
2010201020221010,
|
||||
1020102010210020,
|
||||
1122112210222020,
|
||||
10101010202020201000100010221022,
|
||||
1020102010221000,
|
||||
1020102010221000,
|
||||
1020102010221000,
|
||||
10002000200010002000201020221011,
|
||||
1020102010222000,
|
||||
1020102010222010,
|
||||
20002000202220222000201010001000,
|
||||
20002000200020001000202020001111,
|
||||
20001000200010002000201010002022,
|
||||
20001000200010222000201010002022,
|
||||
20001000200010002000101010002022,
|
||||
20001000200010222000201010002022,
|
||||
10002000100020001000200010002022,
|
||||
10002000100020221000201010002022,
|
||||
10002000100020221000200010002022,
|
||||
11121121,
|
||||
12112111,
|
||||
22222222111111112222111111112222,
|
||||
|
||||
#GOGOSTART
|
||||
10002222100022201000222210102220,
|
||||
10002222100022001010222010102222,
|
||||
10002222101022201000222210002220,
|
||||
10002222100022001011221022102211,
|
||||
20001111200011102000111120201110,
|
||||
20001111200011002020111020201111,
|
||||
20001111202011102000111120001110,
|
||||
20001111200011002022112011201122,
|
||||
10001000202022202020101020201010,
|
||||
10102020101020202220111022201110,
|
||||
10002202101120222020100020201000,
|
||||
10112022101120221000222211112222,
|
||||
10112022202210111011202220222022,
|
||||
10002020100020001000200012222212,
|
||||
20102010201020101111222222222222,
|
||||
11112222222211112222122212221111,
|
||||
|
||||
#GOGOEND
|
||||
2000102010002220,
|
||||
10002000200010002000202220221011,
|
||||
2010201020102220,
|
||||
1010201010202220,
|
||||
1222122212221222,
|
||||
10202020102020201020102010202220,
|
||||
1,
|
||||
|
||||
|
||||
#END
|
||||
|
||||
|
||||
COURSE:Hard
|
||||
LEVEL:8
|
||||
SCOREINIT:580
|
||||
SCOREDIFF:155
|
||||
|
||||
|
||||
#START
|
||||
|
||||
|
||||
#MEASURE 8/4
|
||||
#SCROLL 0.5
|
||||
0011103030003000,
|
||||
30030440,
|
||||
10010120,
|
||||
10010220,
|
||||
10010120,
|
||||
10010220,
|
||||
10010120,
|
||||
10010220,
|
||||
1000001000102011,
|
||||
12,
|
||||
10010010,
|
||||
0020000020221000,
|
||||
10010010,
|
||||
1020000020221000,
|
||||
10010010,
|
||||
0020000020221000,
|
||||
10010010,
|
||||
10000111,
|
||||
1022200000102000,
|
||||
10010122,
|
||||
12200120,
|
||||
10010111,
|
||||
1022200000102000,
|
||||
1000001000101011,
|
||||
1000000000202011,
|
||||
1,
|
||||
30013004,
|
||||
04013000,
|
||||
01113000,
|
||||
03330333,
|
||||
#MEASURE 6/4
|
||||
040400,
|
||||
#MEASURE 8/4
|
||||
1022201000102000,
|
||||
10220122,
|
||||
10220221,
|
||||
10221220,
|
||||
1022201000102000,
|
||||
10220122,
|
||||
10220221,
|
||||
10221220,
|
||||
1022201000102000,
|
||||
10220122,
|
||||
10220221,
|
||||
10221220,
|
||||
1022201000102000,
|
||||
10220122,
|
||||
10220221,
|
||||
10221220,
|
||||
1020102010201011,
|
||||
12121222,
|
||||
1020102010201011,
|
||||
12121222,
|
||||
1020102010201011,
|
||||
12121222,
|
||||
500000000000000000000000000000000008000000000000,
|
||||
22010050,
|
||||
,
|
||||
000000000000000008000000000000200000200000200000,//57
|
||||
|
||||
#GOGOSTART
|
||||
1022201010222010,
|
||||
1022201010222010,
|
||||
1022202010222020,
|
||||
1022202010202020,
|
||||
1022201010222010,
|
||||
1022201010222010,
|
||||
1022202010222020,
|
||||
1022202010002220,
|
||||
1022101010221010,
|
||||
1022101010221010,
|
||||
1022101010221010,
|
||||
1022101010202020,
|
||||
1022101010221010,
|
||||
1022101010221010,
|
||||
10040010,
|
||||
04003333,//73
|
||||
|
||||
#GOGOEND
|
||||
30000044,
|
||||
00000333,
|
||||
30000044,
|
||||
0000000030030030,
|
||||
6,
|
||||
000000000000000000000000000000000008000000000000,
|
||||
4,
|
||||
,
|
||||
#END
|
||||
|
||||
COURSE:Normal
|
||||
LEVEL:7
|
||||
|
||||
#START
|
||||
#MEASURE 8/4
|
||||
#SCROLL 0.5
|
||||
03033030,
|
||||
30030440,
|
||||
10010020,
|
||||
10010120,
|
||||
10010020,
|
||||
10010120,
|
||||
10010020,
|
||||
10010120,
|
||||
10010120,
|
||||
12,
|
||||
10010010,
|
||||
02002000,
|
||||
10010010,
|
||||
02002000,
|
||||
10010010,
|
||||
02002000,
|
||||
10010010,
|
||||
10000111,
|
||||
10200220,
|
||||
00020111,
|
||||
10200220,
|
||||
00020111,
|
||||
10200220,
|
||||
00020111,
|
||||
10000221,
|
||||
1,
|
||||
30003004,
|
||||
04003000,
|
||||
03333000,
|
||||
03330333,
|
||||
#MEASURE 6/4
|
||||
040400,
|
||||
#MEASURE 8/4
|
||||
10110220,
|
||||
10220220,
|
||||
10110221,
|
||||
10222000,
|
||||
10110220,
|
||||
10220220,
|
||||
10110221,
|
||||
10212000,
|
||||
10110220,
|
||||
10220220,
|
||||
10110221,
|
||||
10222000,
|
||||
10110220,
|
||||
10220220,
|
||||
10110221,
|
||||
10212000,
|
||||
10101011,
|
||||
10101110,
|
||||
10101011,
|
||||
10101110,
|
||||
10101011,
|
||||
10101110,
|
||||
500000000000000000000000000000000008000000000000,
|
||||
22010050,
|
||||
,
|
||||
000000000000000008000000000000200000200000200000,//57
|
||||
|
||||
#GOGOSTART
|
||||
12101210,
|
||||
12121212,
|
||||
12121212,
|
||||
12121222,
|
||||
12101210,
|
||||
12121212,
|
||||
12121212,
|
||||
12121011,
|
||||
12111211,
|
||||
12111211,
|
||||
12121212,
|
||||
12121222,
|
||||
12111211,
|
||||
12111211,
|
||||
10040010,
|
||||
04003333,//73
|
||||
|
||||
#GOGOEND
|
||||
30000044,
|
||||
00000333,
|
||||
30000044,
|
||||
0000000030030030,
|
||||
6,
|
||||
000000000000000000000000000000000008000000000000,
|
||||
4,
|
||||
,
|
||||
#END
|
||||
|
||||
COURSE:Easy
|
||||
LEVEL:5
|
||||
SCOREINIT:430
|
||||
SCOREDIFF:125
|
||||
|
||||
#START
|
||||
#MEASURE 8/4
|
||||
#SCROLL 0.5
|
||||
03003030,
|
||||
30030400,
|
||||
10010020,
|
||||
10010020,
|
||||
10010020,
|
||||
1,
|
||||
10010020,
|
||||
10010020,
|
||||
10010020,
|
||||
12,
|
||||
10010010,
|
||||
02,
|
||||
10010010,
|
||||
02,
|
||||
10010010,
|
||||
02,
|
||||
10010010,
|
||||
00000100,
|
||||
1200,
|
||||
00000100,
|
||||
1200,
|
||||
00000100,
|
||||
1200,
|
||||
00000100,
|
||||
10000220,
|
||||
1,
|
||||
30003004,
|
||||
04003000,
|
||||
03003000,
|
||||
03030303,
|
||||
#MEASURE 6/4
|
||||
030300,
|
||||
#MEASURE 8/4
|
||||
10110020,
|
||||
10110020,
|
||||
10110020,
|
||||
1120,
|
||||
10110020,
|
||||
10110020,
|
||||
10110020,
|
||||
1120,
|
||||
10110020,
|
||||
10110020,
|
||||
10110020,
|
||||
11102000,
|
||||
10110020,
|
||||
10110020,
|
||||
10110020,
|
||||
11102000,
|
||||
10101011,
|
||||
1110,
|
||||
10101011,
|
||||
1110,
|
||||
10101011,
|
||||
1110,
|
||||
500000000000000000000000000000000008000000000000,
|
||||
11010050,
|
||||
,
|
||||
000000000000000008000000000000000000000000000000,//57
|
||||
|
||||
#GOGOSTART
|
||||
10101011,
|
||||
10101011,
|
||||
10101011,
|
||||
1110,
|
||||
10101011,
|
||||
10101011,
|
||||
10101011,
|
||||
1110,
|
||||
10111011,
|
||||
10111011,
|
||||
10111011,
|
||||
10111000,
|
||||
10111011,
|
||||
10111011,
|
||||
10040010,
|
||||
04003330,//73
|
||||
|
||||
#GOGOEND
|
||||
30000044,
|
||||
00000330,
|
||||
30000044,
|
||||
0000000030030030,
|
||||
6,
|
||||
000000000000000000000000000000000008000000000000,
|
||||
4,
|
||||
,
|
||||
#END
|
||||
Reference in New Issue
Block a user