This commit is contained in:
2026-03-07 15:37:31 +09:00
parent 4b4e2b8c98
commit 60bc4e620d
110 changed files with 71338 additions and 0 deletions

407
tja/444.tja Normal file
View File

@@ -0,0 +1,407 @@
//TJADB Project
TITLE:Theremin Rhapsody
TITLEJA:テルミン狂想曲
SUBTITLE:--Torine -42nd Movement “Pathetique” Rendition-
SUBTITLEJA:第42楽章「悲愴」
BPM:120
WAVE:Theremin Rhapsody.ogg
OFFSET:-5.464
DEMOSTART:15.464
COURSE:Oni
LEVEL:7
BALLOON:15,25,60,6,6,80,35
SCOREINIT:710
SCOREDIFF:168
#START
#SCROLL 0.75
100000000222200000000000,
100000000111100000000000,
100000000222200000000000,
#BPMCHANGE 121
100000000111100000000000,
#BPMCHANGE 120.01
7008,
#BPMCHANGE 120
101102101202,
101102101202,
101102101200,
3330,
102102101202,//10
102101201202,
102102101200,
4440,
7,
#MEASURE 2/4
#BPMCHANGE 118
08,
#MEASURE 4/4
#BPMCHANGE 121
300000101010100000200200,
#BPMCHANGE 120.03
300000101010100000200200,
#GOGOSTART
#SCROLL 1
#BPMCHANGE 130
3001102011012010,
1001101011012020,
1001102011012010,//20
1001102012021011,
1001102011012010,
1001102011012020,
1001102011012010,
1001102012021000,
300000002020200000200000100200000200100000400000,
300000002020200000200000100200000200100000300000,
300000002020200000200000100200000200100000400000,
#GOGOEND
9,
0,//30
0,
8,
0,
3001201011012010,
0010202101202010,
1001201011012010,
0010202101202010,
#GOGOSTART
1011201011112010,
1122112211221122,
1011201011112010,//40
1122112211112010,
7878,
#GOGOEND
3001102012012010,
1001102012012020,
1001102012012010,
1001102012021011,
1001102012021020,
1001102012021010,
1001102012021020,
1001102021012000,//50
300000002020200000100000200100000200100000400000,
#BPMCHANGE 129
300000002020200000100000200100000200100000400000,
#BPMCHANGE 130
9,
0,
0,
0,
#BPMCHANGE 131
8,
#GOGOSTART
#BPMCHANGE 130
3044,
1111222211112222,
1122112211221122,
7,
0,
#GOGOEND
#BPMCHANGE 107.15
8,
#END
COURSE:hard
LEVEL:6
BALLOON:14,20,45,13,8,4,4,54,12,12,28
SCOREINIT:960
SCOREDIFF:243
SCOREMODE:2
#START
#SCROLL 0.75
12,
10012000,
12,
#BPMCHANGE 121
10012000,
#BPMCHANGE 120.01
7008,
#BPMCHANGE 120
101101100000,
101101100000,
101101100200,
3330,
202202200000,//10
202202200000,
202202200100,
4440,
7,
#BPMCHANGE 118
#MEASURE 2/4
08,
#MEASURE 4/4
#BPMCHANGE 121
300111100200,
#BPMCHANGE 120.03
300111100200,
#GOGOSTART
#BPMCHANGE 130
#SCROLL 1
3001101010002000,
1001101010001000,
1001101010002000,//20
1001101020000000,
3001101010002000,
1001101010001000,
1001101010002000,
1001101020000000,
3002202020001010,
3002202020001030,
3002202020003030,
#GOGOEND
9,
0,//30
0,
8,
0,
3001101010001010,
0202,
1001101010001010,
0202,
#GOGOSTART
1110202011102020,
7008,
1110202011102020,//40
7008,
7878,
#GOGOEND
3001101001101000,
1001101001102000,
1001101001101000,
1001101020000000,
3001101001101000,
1001101001102000,
1001101001101000,
1001101020000000,//50
3002201002201000,
#BPMCHANGE 129
3002201002201000,
#BPMCHANGE 130
9,
0,
0,
0,
#BPMCHANGE 131
8,
#GOGOSTART
#BPMCHANGE 130
3044,
7008,
7008,
7,
0,
#GOGOEND
#BPMCHANGE 107.15
8,
0,
0,
0,
#END
COURSE:normal
LEVEL:6
BALLOON:12,33,8,6,3,3,8,6,8,8,44,22
SCOREINIT:1290
SCOREDIFF:445
SCOREMODE:2
#START
#SCROLL 0.75
12,
1120,
12,
#BPMCHANGE 121
1120,
#BPMCHANGE 120.01
1212,
#BPMCHANGE 120
1110,
1110,
1212,
3330,
1110,//10
1110,
1212,
4440,
7,
#BPMCHANGE 118
#MEASURE 2/4
08,
#MEASURE 4/4
#BPMCHANGE 121
3022,
#BPMCHANGE 120.03
3022,
#GOGOSTART
#BPMCHANGE 130
#SCROLL 1
30011010,
10011010,
10011010,//20
12,
30011010,
10011010,
10011010,
12,
32,
3022,
32,
#GOGOEND
9,
0,//30
0,
8,
0,
30111010,
12,
10111010,
12,
#GOGOSTART
1212,
7008,
1212,//40
7008,
7878,
#GOGOEND
30011011,
10011010,
10011011,
12,
30011011,
10011010,
10011011,
12,//50
7008,
#BPMCHANGE 129
7008,
#BPMCHANGE 130
9,
0,
0,
0,
#BPMCHANGE 131
8,
#GOGOSTART
#BPMCHANGE 130
3033,
7008,
7008,
7,
0,
#GOGOEND
#BPMCHANGE 107.15
8,
0,
0,
0,
#END
COURSE:easy
LEVEL:4
BALLOON:10,30,8,6,3,3,8,8,40,20
SCOREINIT:880
SCOREDIFF:305
SCOREMODE:2
#START
#SCROLL 0.75
12,
12,
12,
#BPMCHANGE 121
12,
#BPMCHANGE 120.01
1212,
#BPMCHANGE 120
11,
1110,
11,
3330,//10
22,
2220,
22,
4440,
7008,
#BPMCHANGE 118
#MEASURE 2/4
0,
#MEASURE 4/4
#BPMCHANGE 121
32,
#BPMCHANGE 120.03
32,
#GOGOSTART
#BPMCHANGE 130
#SCROLL 1
3011,
1011,
1022,//20
21,
3011,
1011,
1022,
21,
32,
32,
32,
#GOGOEND
9,
0,//30
0,
8,
0,
3011,
12,
1011,
12,
#GOGOSTART
1212,
7008,
1212,//40
7008,
7878,
#GOGOEND
3011,
1011,
1022,
21,
3012,
1012,
1022,
21,//50
7008,
#BPMCHANGE 129
7008,
#BPMCHANGE 130
9,
0,
0,
0,
#BPMCHANGE 131
8,
#GOGOSTART
#BPMCHANGE 130
33,
3,
3,
7,
0,
#GOGOEND
#BPMCHANGE 107.15
8,
0,
0,
0,
#END