update
This commit is contained in:
397
tja/51.tja
Normal file
397
tja/51.tja
Normal file
@@ -0,0 +1,397 @@
|
||||
//TJADB Project
|
||||
TITLE:Kurae! Butto Burst‼
|
||||
TITLEJA:くらえ! ブットバースト!!
|
||||
SUBTITLE:--Hironobu Kageyama/Yuujou Souchaku! Butto Burst
|
||||
BPM:202
|
||||
WAVE:Kurae! Butto Burst!!.ogg
|
||||
OFFSET:-2.012
|
||||
DEMOSTART:6.768
|
||||
SCENEPRESET:BUTTOBURST
|
||||
|
||||
COURSE:Oni
|
||||
LEVEL:6
|
||||
BALLOON:9,10
|
||||
SCOREINIT:490
|
||||
SCOREDIFF:133
|
||||
|
||||
|
||||
#START
|
||||
|
||||
|
||||
3,
|
||||
,
|
||||
000330,
|
||||
11222222,//4
|
||||
|
||||
#GOGOSTART
|
||||
11201121,
|
||||
01211020,
|
||||
11201121,
|
||||
01210120,
|
||||
30430340,
|
||||
30430340,
|
||||
30430333,
|
||||
600000000000000000000000000000000008000000300000,//12
|
||||
|
||||
#GOGOEND
|
||||
,
|
||||
00222020,
|
||||
20224044,
|
||||
00222020,
|
||||
20224044,
|
||||
00222020,
|
||||
2000202000111030,
|
||||
0010101110101011,
|
||||
1010101110111020,
|
||||
11201120,
|
||||
11212022,
|
||||
11201120,
|
||||
11212022,
|
||||
11201120,
|
||||
1010201000111030,
|
||||
0010101110101011,
|
||||
1010101110111010,
|
||||
00111011,
|
||||
2111,
|
||||
2011,
|
||||
2011,
|
||||
00111010,
|
||||
2111,
|
||||
2211,
|
||||
2000202220002000,
|
||||
11101011,
|
||||
10102011,
|
||||
10101011,
|
||||
11102022,
|
||||
11111022,
|
||||
11111033,
|
||||
3333,
|
||||
33433340,
|
||||
7008,//46
|
||||
|
||||
#GOGOSTART
|
||||
11201121,
|
||||
01211020,
|
||||
11201121,
|
||||
01210120,
|
||||
30430340,
|
||||
30430340,
|
||||
30330333,
|
||||
7008,
|
||||
11210121,
|
||||
10211121,
|
||||
11200334,
|
||||
00210120,
|
||||
30430340,
|
||||
30430340,
|
||||
30330333,
|
||||
34434434,
|
||||
11201121,
|
||||
0010201110102000,
|
||||
11201121,
|
||||
0010201110102000,
|
||||
3022203000302220,
|
||||
3022203000302220,
|
||||
30330333,
|
||||
3040303040302220,
|
||||
1010201110102011,
|
||||
1010201110102011,
|
||||
1010201110303040,
|
||||
00210120,
|
||||
3022203040302220,
|
||||
3022203040302220,
|
||||
1110403000111110,
|
||||
600000000000000000000000000000000008000000300000,//78
|
||||
|
||||
#GOGOEND
|
||||
|
||||
|
||||
#END
|
||||
|
||||
|
||||
COURSE:Hard
|
||||
LEVEL:4
|
||||
BALLOON:8,8,8,9,10,11
|
||||
|
||||
#START
|
||||
3,
|
||||
,
|
||||
000330,
|
||||
,//4
|
||||
|
||||
#GOGOSTART
|
||||
10201121,
|
||||
01211020,
|
||||
10201121,
|
||||
01210120,
|
||||
30430040,
|
||||
30430040,
|
||||
30430333,
|
||||
600000000000000000000000000000000008000000300000,//12
|
||||
|
||||
#GOGOEND
|
||||
,
|
||||
1202,
|
||||
10210000,
|
||||
1202,
|
||||
10220000,
|
||||
1202,
|
||||
10210115,
|
||||
,
|
||||
000000000000000000000000000000000008000000000000,
|
||||
10201120,
|
||||
10212022,
|
||||
10201120,
|
||||
10222022,
|
||||
10201120,
|
||||
10210115,
|
||||
,
|
||||
000000000000000000000000000000000000000000000008,
|
||||
00111011,
|
||||
2211,
|
||||
2011,
|
||||
2011,
|
||||
00111010,
|
||||
2211,
|
||||
2211,
|
||||
2215,
|
||||
000000000000000000000008000000000000700000000000,
|
||||
0085,
|
||||
000000000000000000000008000000000000700000000000,
|
||||
0085,
|
||||
000000000000000000000008000000000000700000000000,
|
||||
00008033,
|
||||
3333,
|
||||
9009,
|
||||
8,//46
|
||||
|
||||
#GOGOSTART
|
||||
10201121,
|
||||
01211020,
|
||||
10201121,
|
||||
01210120,
|
||||
30430040,
|
||||
30430040,
|
||||
30330700,
|
||||
0008,
|
||||
10201121,
|
||||
01211020,
|
||||
10200334,
|
||||
00210120,
|
||||
30430040,
|
||||
30430040,
|
||||
30330500,
|
||||
000000000000000000000000000000000008000000000000,
|
||||
10201121,
|
||||
01211020,
|
||||
10201121,
|
||||
01210120,
|
||||
30430040,
|
||||
30430040,
|
||||
30330700,
|
||||
0008,
|
||||
10201121,
|
||||
01211020,
|
||||
10200334,
|
||||
00210120,
|
||||
30430040,
|
||||
30430040,
|
||||
30330333,
|
||||
600000000000000000000000000000000008000000300000,//78
|
||||
|
||||
#GOGOEND
|
||||
,
|
||||
,
|
||||
#END
|
||||
|
||||
COURSE:Normal
|
||||
LEVEL:2
|
||||
BALLOON:5,5,5,7,8,8
|
||||
|
||||
#START
|
||||
#SCROLL 0.75
|
||||
3,
|
||||
,
|
||||
,
|
||||
,//4
|
||||
|
||||
#GOGOSTART
|
||||
1110,
|
||||
11,
|
||||
1110,
|
||||
11,
|
||||
30030030,
|
||||
30030030,
|
||||
30300600,
|
||||
000000000000000000000000000000000000000000000008,//12
|
||||
|
||||
#GOGOEND
|
||||
,
|
||||
11,
|
||||
1100,
|
||||
11,
|
||||
2200,
|
||||
11,
|
||||
10100500,
|
||||
,
|
||||
000000000000000000000000000008000000000000000000,
|
||||
11,
|
||||
1100,
|
||||
11,
|
||||
2200,
|
||||
11,
|
||||
10100500,
|
||||
,
|
||||
000000000000000000000000000000000000000000000008,
|
||||
02,
|
||||
02,
|
||||
2011,
|
||||
2011,
|
||||
02,
|
||||
02,
|
||||
2211,
|
||||
2215,
|
||||
000000000000000008000000000000000000700000000000,
|
||||
0805,
|
||||
000000000000000008000000000000000000700000000000,
|
||||
0805,
|
||||
000000000000000008000000000000000000700000000000,
|
||||
0803,
|
||||
3333,
|
||||
9009,
|
||||
8,//46
|
||||
|
||||
#GOGOSTART
|
||||
1110,
|
||||
11,
|
||||
1110,
|
||||
11,
|
||||
30030030,
|
||||
30030030,
|
||||
30300700,
|
||||
0008,
|
||||
1110,
|
||||
11,
|
||||
10100303,
|
||||
,
|
||||
30030030,
|
||||
30030030,
|
||||
30300500,
|
||||
000000000000000000000000000008000000000000000000,
|
||||
1110,
|
||||
11,
|
||||
1110,
|
||||
11,
|
||||
30040030,
|
||||
30040030,
|
||||
30300700,
|
||||
0008,
|
||||
1110,
|
||||
11,
|
||||
10100303,
|
||||
,
|
||||
30040030,
|
||||
30040030,
|
||||
30300600,
|
||||
000000000000000000000000000000000000000000000008,//78
|
||||
|
||||
#GOGOEND
|
||||
,
|
||||
,
|
||||
#END
|
||||
|
||||
COURSE:Easy
|
||||
LEVEL:2
|
||||
BALLOON:3,3,3,4,6,6
|
||||
|
||||
#START
|
||||
#SCROLL 0.75
|
||||
,
|
||||
,
|
||||
,
|
||||
,//4
|
||||
|
||||
#GOGOSTART
|
||||
11,
|
||||
1,
|
||||
11,
|
||||
1,
|
||||
3,
|
||||
3,
|
||||
30000600,
|
||||
000000000000000000000000000000000000000000000008,//12
|
||||
|
||||
#GOGOEND
|
||||
,
|
||||
11,
|
||||
1,
|
||||
11,
|
||||
1,
|
||||
11,
|
||||
10000500,
|
||||
,
|
||||
000000000000000000000000000008000000000000000000,
|
||||
11,
|
||||
1100,
|
||||
11,
|
||||
1100,
|
||||
11,
|
||||
10100500,
|
||||
,
|
||||
000000000000000000000000000000000000000000000008,
|
||||
,
|
||||
,
|
||||
22,
|
||||
11,
|
||||
,
|
||||
,
|
||||
22,
|
||||
1015,
|
||||
000000000000000008000000000000000000700000000000,
|
||||
0805,
|
||||
000000000000000008000000000000000000700000000000,
|
||||
0805,
|
||||
000000000000000008000000000000000000700000000000,
|
||||
0800,
|
||||
33,
|
||||
9009,
|
||||
8,//46
|
||||
|
||||
#GOGOSTART
|
||||
11,
|
||||
1,
|
||||
11,
|
||||
1,
|
||||
3,
|
||||
3,
|
||||
30000700,
|
||||
0008,
|
||||
11,
|
||||
1,
|
||||
10000303,
|
||||
,
|
||||
3,
|
||||
3,
|
||||
30000500,
|
||||
000000000000000000000000000008000000000000000000,
|
||||
11,
|
||||
1,
|
||||
11,
|
||||
1,
|
||||
3,
|
||||
3,
|
||||
30000700,
|
||||
0008,
|
||||
11,
|
||||
1,
|
||||
10000303,
|
||||
,
|
||||
3,
|
||||
3,
|
||||
30000600,
|
||||
000000000000000000000000000000000000000000000008,//78
|
||||
|
||||
#GOGOEND
|
||||
,
|
||||
,
|
||||
#END
|
||||
Reference in New Issue
Block a user