This commit is contained in:
2026-03-07 15:37:31 +09:00
parent 4b4e2b8c98
commit 60bc4e620d
110 changed files with 71338 additions and 0 deletions

604
tja/539.tja Normal file
View File

@@ -0,0 +1,604 @@
//TJADB Project
TITLE:Scream out! -Tatsujin Edit-
TITLEJA:Scream out! -達人Edit.-
SUBTITLE:--A-One/Touhou Project
SUBTITLEJA:東方Projectアレンジ A-One
BPM:165
WAVE:Scream out! -Tatsujin Edit-.ogg
OFFSET:-1.602
DEMOSTART:94.692
COURSE:Edit
LEVEL:9
BALLOON:16,6,2,2,9
SCOREINIT:230
SCOREDIFF:70
#START
1000222210001111,
2000222210001111,
2010201202102012,
1210201202101111,
2112112121121121,
2112112121121122,
500008000000100100200200100100200200200100500000,
000008000000400000000000300000000000300000000000,//8
#GOGOSTART
1112020101021112,
1112020101021112,
1112020101021112,
1112020101112221,
1122020101022112,
1122020101022112,
1122020101022112,
1122020112012010,//16
#GOGOEND
1020102010222020,
1022102010201110,
2011201022102070,
0008,
1020102010222020,
1022102010221110,
2011112022111030,
03030400,
1021002010201220,
1021002010201120,
1010201020201022,
1110201111202211,
1021021010201220,
1021021010221110,
32023203,
000000300000300000300000000000
#SCROLL 2
600000000008000000,//32
#SCROLL 1
#GOGOSTART
1012021120120210,
2012021120112012,
1101201211012012,
100000101010100000101010100000101010100000100100,
1012021120120210,
2012021120112012,
1011201210112012,
100100200100100200100000101010101010200000100000,
1012021120120211,
2012021120112012,
1101201211012012,
100000101010100000101010100000101010100000100100,
1012021120120211,
2012021120112022,
1011202210112022,
1221221030004000,//48
#GOGOEND
500000000008000000100000200100100200200100100200,
2011201220002121,
500008000000100100200100200100200100200100200000,
101010101010100000202020202020200000200100200100,
200100100200100100200100500008000000100200100100,
2112112112212212,
1021012010210120,
1221221270000080,
3,
0,
00202202,
02020211,
10101011,
10101011,
32023203,
000000000000300000000000300000000000300000000000000000000000
#SCROLL 2
600000000000000000000080000000000000,//64
#SCROLL 1
#GOGOSTART
1012021120120210,
2012021120112012,
1101201211012012,
100000101010100000101010100000101010100000100100,
1012021120120210,
2012021120112012,
1011201210112012,
100100200100100200100000101010101010200000100000,
1012021120120211,
2012021120112012,
1101201211012012,
100000101010100000101010100000101010100000100100,
1012021120120211,
2010221000304000,
100100200200100100200200101010100100200200500000,
000000000008000000000000300000000000400000000000,
1021201210403040,
1021202210403040,
1021201210403040,
1021221030007080,
1021201210403022,
1021202210403022,
1021201210403022,
1221221030007080,
1112020101021112,
1112020101021112,
1112020101021112,
1112020101112221,
1122020101022112,
1122020101022112,
1122020101022112,
1122020112012211,//96
#GOGOEND
78,
#END
COURSE:Oni
LEVEL:8
BALLOON:15,3,3,5,3,9
SCOREINIT:300
SCOREDIFF:80
#START
33,
40004002,
21122112,
2010102010001122,
1101102211011022,
1101102211011022,
1000112211221040,
0344,//8
#GOGOSTART
1101020101020120,
1101020101020120,
1102020101020120,
1101020101022210,
1101020101021120,
1101020101021120,
1102020101021120,
1101020112012010,//16
#GOGOEND
1020102010222020,
1020102000112010,
2011102011102070,
0008,
1020102010222020,
1020102000112010,
2011102011112030,
03030400,
1022102010201120,
1022102010201122,
11212212,
100000200000100000200000100000500000000008000000,
1022102010201220,
1022102010221220,
30003003,
03330708,//32
#GOGOSTART
1022202010222020,
1020102210001020,
1020112010221020,
1011101110111000,
1022202010222020,
1022102010201120,
1020112010201120,
1022112030003000,
1022102010221020,
1020102110001020,
1020112010211020,
1011101110111000,
1022102010221020,
1022102010201120,
1020112010201120,
1121112030004000,//48
#GOGOEND
500000000008000000200000100100200000100100200200,
1011102210001122,
2000112121201120,
500000000008000000700000000000800000200200100100,
1101101120002211,
1101102211221122,
1011011020220220,
1021012070000800,
3,
,
00202202,
02020211,
10101011,
10101011,
30003003,
03330708,//64
#GOGOSTART
1022202010222020,
1020102210001020,
1020112010221020,
1011101110111000,
1022202010222020,
1022102010201120,
1020112010201120,
1022112030003000,
1022102010221020,
1020102110001020,
1020112010211020,
1011101110111000,
1022102010221020,
1022112000404000,
1110222011122250,
000000000008000000000000400000000000400000000000,
3003003000403040,
3003003000403040,
3003003000403040,
600000000008000000000000300000000000400000000000,
1021021010221020,
1021021010221120,
1021021010221020,
1022112030004000,
1101020101020120,
1101020101020120,
1102020101020120,
1101020101022210,
1101020101021120,
1101020101021120,
1102020101021120,
1101020112012211,//96
#GOGOEND
78,
#END
COURSE:Hard
LEVEL:6
BALLOON:12,5,7
SCOREINIT:320
SCOREDIFF:80
#START
33,
44,
1122,
1000100020001110,
1001001010010010,
1001001010010010,
2000111010111040,
0344,//8
#GOGOSTART
1101020101010000,
1101020101010000,
1102020101010000,
1101020101011000,
1101020101010000,
1101020101010000,
1102020101010000,
1101020110010010,//16
#GOGOEND
10211011,
01110111,
20221117,
0008,
10211011,
01120112,
20221113,
03030400,
10110222,
10110222,
10201212,
100000200000100000200000100000500000000008000000,
1000101000222020,
1000101000222020,
30003003,
03330000,//32
#GOGOSTART
10121012,
1020101110001020,
1020102010111050,
000000000000000000000008000000000000100000100000,
10121012,
1020102010111020,
1020102010222050,
000000000008000000000000100000000000100000000000,
10121012,
1020101110001020,
1020102010111050,
000000000000000000000008000000000000100000100000,
10121012,
1020102010111020,
1020102010222050,
000000000008000000000000400000000000400000000000,//48
#GOGOEND
500000000008000000200000100000200000100000200000,
1011101110001110,
2000222020202220,
500000000000000000000000000008000000100000100000,
1001001010001010,
1001001010201020,
1001001020020020,
1011011070000800,
3,
,
00202202,
02020211,
10101011,
10101011,
30003003,
03330000,//64
#GOGOSTART
10121012,
1020101110001020,
1020102010111050,
000000000000000000000008000000000000100000100000,
10121012,
1020102010111020,
1020102010222050,
000000000008000000000000100000000000100000000000,
10121012,
1020101110001020,
1020102010111050,
000000000000000000000008000000000000100000100000,
10121012,
12120440,
33443346,
000000000008000000000000400000000000400000000000,
3003003000303030,
3003003000303030,
3003003000303030,
600000000008000000000000400000000000400000000000,
3003003000303030,
3003003000303030,
3003003000303030,
600000000008000000000000400000000000400000000000,
1101020101010000,
1101020101010000,
1102020101010000,
1101020101011000,
1101020101010000,
1101020101010000,
1102020101010000,
1101020110010010,//96
#GOGOEND
78,
#END
COURSE:Normal
LEVEL:5
BALLOON:26,7,9,9,9,7
#START
33,
33,
1122,
1120,
9,
,
0900,
8,//8
#GOGOSTART
10101011,
10101011,
10101011,
1122,
10101011,
10101011,
10101011,
7008,//16
#GOGOEND
11,
10110220,
1117,
0008,
11,
10110220,
1117,
0008,
10110100,
10110100,
1212,
10202200,
10110200,
10110200,
30003006,
000000000000000000000008000000000000000000000000,//32
#GOGOSTART
10011001,
10011000,
10101115,
000000000000000000000008000000000000000000000000,
10011001,
10220110,
10102225,
000000000008000000000000000000000000000000000000,
10011001,
10011000,
10101115,
000000000000000000000008000000000000000000000000,
10011001,
10220110,
10102225,
000000000008000000000000400000000000400000000000,//48
#GOGOEND
500000000000000000000000000000000008000000000000,
10101022,
20101011,
500000000000000000000000000008000000000000000000,
10111010,
10111010,
20222020,
7,
0800,
,
1,
11,
1111,
1111,
30003006,
000000000000000000000008000000000000000000000000,//64
#GOGOSTART
10011001,
10011000,
10101115,
000000000000000000000008000000000000000000000000,
10011001,
10220110,
10102225,
000000000008000000000000000000000000000000000000,
10011001,
10011000,
10101115,
000000000000000000000008000000000000000000000000,
10011001,
10220330,
6,
000000000008000000000000400000000000400000000000,
3003003000300000,
3003003000300000,
3003003000300000,
3044,
3003003000300000,
3003003000300000,
3003003000300000,
3044,
10101011,
10101011,
10101011,
1122,
10101011,
10101011,
10101011,
7008,//96
#GOGOEND
3,
#END
COURSE:Easy
LEVEL:3
BALLOON:21,6,6,5,7,6,5
#START
33,
33,
12,
12,
9,
,
0900,
8,//8
#GOGOSTART
1011,
1011,
1011,
12,
1011,
1011,
1011,
12,//16
#GOGOEND
11,
1100,
1117,
00000800,
11,
1100,
1117,
00000800,
1011,
1011,
12,
12,
1011,
1011,
30003006,
000000000000000000000008000000000000000000000000,//32
#GOGOSTART
11,
1110,
1115,
000000000000000000000008000000000000000000000000,
11,
2200,
1117,
08,
11,
1110,
1115,
000000000000000000000008000000000000000000000000,
11,
2200,
1115,
000008000000000000000000300000000000300000000000,//48
#GOGOEND
5,
000000000000000000000000000008000000000000000000,
1111,
500000000000000000000000000008000000000000000000,
1110,
1111,
12,
7,
0800,
,
,
,
1,
1,
30003006,
000000000000000000000008000000000000000000000000,//64
#GOGOSTART
11,
1110,
1115,
000000000000000000000008000000000000000000000000,
11,
2200,
1117,
08,
11,
1110,
1115,
000000000000000000000008000000000000000000000000,
11,
2200,
6,
000008000000000000000000300000000000300000000000,
30000300,
30000300,
30000300,
3033,
30000300,
30000300,
30000300,
3033,
1011,
1011,
1011,
12,
1011,
1011,
1011,
12,//96
#GOGOEND
3,
#END