update
This commit is contained in:
530
tja/580.tja
Normal file
530
tja/580.tja
Normal file
@@ -0,0 +1,530 @@
|
||||
//TJADB Project
|
||||
TITLE:Sports Digestdon ~Fill in the Sky~
|
||||
TITLEJA:スポーツダイジェスドン ~Fill In The Sky~
|
||||
SUBTITLE:--Junichi Nakatsuru
|
||||
SUBTITLEJA:
|
||||
BPM:130
|
||||
WAVE:Sports Digestdon Fill in the Sky.ogg
|
||||
OFFSET:-2.003
|
||||
DEMOSTART:55.860
|
||||
|
||||
COURSE:Edit
|
||||
LEVEL:9
|
||||
BALLOON:32
|
||||
SCOREINIT:420
|
||||
SCOREDIFF:105
|
||||
|
||||
|
||||
#START
|
||||
|
||||
|
||||
3003002010102115,
|
||||
000000000000000000000000000000000000000000008000,
|
||||
0003003020103004,
|
||||
0021101700000000,
|
||||
0008,
|
||||
1011201010112001,
|
||||
0000201010012010,
|
||||
1011201010112001,
|
||||
0000201010012100,
|
||||
1011201010112001,
|
||||
0000201012012010,
|
||||
1221101020201221,
|
||||
0000121010212210,
|
||||
1202112010112001,
|
||||
0000201010012110,
|
||||
1202112010112001,
|
||||
0221221210001122,
|
||||
1202112010112001,
|
||||
0000201010021122,
|
||||
1202112010112001,
|
||||
000000200200100000100000100000101010100200200200,
|
||||
1001201010012010,
|
||||
1001201012101020,
|
||||
1001201010012010,
|
||||
1001201030030040,
|
||||
1001201010012010,
|
||||
1001201010202210,
|
||||
200100100200100100200221,
|
||||
100000300000000000202010200200000200000200200200,
|
||||
|
||||
#GOGOSTART
|
||||
2003003040002211,
|
||||
0020112010201221,
|
||||
0220102011201221,
|
||||
0020112010201221,
|
||||
0020121210201221,
|
||||
0020112010202112,
|
||||
0020112040040121,
|
||||
0020112010202112,
|
||||
0020112040030040,
|
||||
3003004000112212,
|
||||
100000000100200000100000100000202020100100100000,
|
||||
3003004000101040,
|
||||
000000202020100100000100100000202020200200200200,
|
||||
|
||||
#GOGOEND
|
||||
1001001000000000,
|
||||
2002002000012000,
|
||||
1022021010010000,
|
||||
2022022022021022,
|
||||
1000001001121012,
|
||||
1001001120010121,
|
||||
1022010210110022,
|
||||
0001201010210211,
|
||||
1004000020001001,
|
||||
0010210211102022,
|
||||
1022120100221202,
|
||||
1011122120202202,
|
||||
1012000020001122,
|
||||
1021002011221212,
|
||||
1011010202012020,
|
||||
1112001020001112,
|
||||
1004001020012002,
|
||||
1022120100102020,
|
||||
1122002112002211,
|
||||
0012210011221210,
|
||||
43343343,
|
||||
300000400000000000101010200200000200200100200200,
|
||||
|
||||
#GOGOSTART
|
||||
2003003040003001,
|
||||
0020112010201221,
|
||||
0220102011201221,
|
||||
0020112010201221,
|
||||
0020121210201221,
|
||||
0020112010201221,
|
||||
0020112040040121,
|
||||
0020112010201221,
|
||||
0020112040030040,
|
||||
3003004000112211,
|
||||
1021201012102110,
|
||||
3003004000101020,
|
||||
000000202010100100100100100000202010100100100100,
|
||||
1000122120112001,
|
||||
0000211012004022,
|
||||
1001202010201220,
|
||||
500000000000000000000000000000000000000008000000,
|
||||
1022020220202000,
|
||||
1010211203040000,
|
||||
|
||||
#GOGOEND
|
||||
|
||||
|
||||
#END
|
||||
|
||||
|
||||
COURSE:Oni
|
||||
LEVEL:7
|
||||
BALLOON:20,10
|
||||
SCOREINIT:680
|
||||
SCOREDIFF:185
|
||||
|
||||
|
||||
#START
|
||||
|
||||
|
||||
1001000000001003,
|
||||
0000000020002220,
|
||||
0001001000001003,
|
||||
0000202700000000,
|
||||
0000000000080000,
|
||||
1000101020000001,
|
||||
0100101020000000,
|
||||
1000101020000001,
|
||||
0100101020000000,
|
||||
1000101020000001,
|
||||
0100101002002000,
|
||||
1102102010001003,
|
||||
0003,
|
||||
1000101020000001,
|
||||
0100101020000000,
|
||||
1000101020000001,
|
||||
0100101020001110,
|
||||
1000101020000001,
|
||||
0100101020000000,
|
||||
1000101020001002,
|
||||
0000000000002111,
|
||||
1000100010011010,
|
||||
1000100010011020,
|
||||
1000100010011010,
|
||||
1000100020020010,
|
||||
1000100010011010,
|
||||
1130,
|
||||
10210210,
|
||||
23000000,
|
||||
|
||||
#GOGOSTART
|
||||
2002001010001002,
|
||||
0110100010001002,
|
||||
0000100010001002,
|
||||
0110100010001002,
|
||||
0000100010001002,
|
||||
0110100010001002,
|
||||
0000100020020002,
|
||||
0110100010001002,
|
||||
0000100020010010,
|
||||
1001003000002000,
|
||||
1110200011102000,
|
||||
1001003000101030,
|
||||
0000000022012000,
|
||||
|
||||
#GOGOEND
|
||||
3,
|
||||
2002002000011000,
|
||||
1,
|
||||
2022022020021000,
|
||||
1000000001112011,
|
||||
0000001120010121,
|
||||
1011020110110000,
|
||||
0000101020110101,
|
||||
1002000000001001,
|
||||
0000200200001001,
|
||||
0011220100112201,
|
||||
0011220100101010,
|
||||
1002000020001122,
|
||||
1011000001112211,
|
||||
1011010102022020,
|
||||
1001000000001001,
|
||||
0002001010000000,
|
||||
1002001010000000,
|
||||
1122001122001122,
|
||||
0011220011221111,
|
||||
10210210,
|
||||
2070000000000008,
|
||||
|
||||
#GOGOSTART
|
||||
0001001010001002,
|
||||
0110100010001002,
|
||||
0000100010001002,
|
||||
0110100010001002,
|
||||
0000100010001002,
|
||||
0110100010001002,
|
||||
0000100020020002,
|
||||
0110100010001002,
|
||||
0000100020010010,
|
||||
1001001000002000,
|
||||
1111200011112000,
|
||||
1001002000101030,
|
||||
03,
|
||||
1002101020001001,
|
||||
0100101002002010,
|
||||
1000101010001003,
|
||||
,
|
||||
2022020220202000,
|
||||
1010122101030000,
|
||||
|
||||
#GOGOEND
|
||||
|
||||
|
||||
#END
|
||||
|
||||
|
||||
COURSE:Hard
|
||||
LEVEL:6
|
||||
BALLOON:10
|
||||
SCOREINIT:820
|
||||
SCOREDIFF:253
|
||||
|
||||
|
||||
#START
|
||||
|
||||
|
||||
1001000000001003,
|
||||
,
|
||||
0001001000001003,
|
||||
0000000300000000,
|
||||
,
|
||||
10112000,
|
||||
00112000,
|
||||
10112000,
|
||||
0000111020000000,
|
||||
10112000,
|
||||
0000101002002000,
|
||||
1000101010001003,
|
||||
0003,
|
||||
10112000,
|
||||
00112000,
|
||||
10112000,
|
||||
0000111020001000,
|
||||
10112000,
|
||||
00112000,
|
||||
1000101020000003,
|
||||
0002,
|
||||
1000100010011000,
|
||||
1000100010011000,
|
||||
1000100010011000,
|
||||
1130,
|
||||
1000100010011000,
|
||||
1130,
|
||||
10010010,
|
||||
03000000,//29
|
||||
|
||||
#GOGOSTART
|
||||
0001001010000002,
|
||||
0000100010001002,
|
||||
0000100010001002,
|
||||
0000100010001002,
|
||||
0000100010001002,
|
||||
0000100010001002,
|
||||
0000100020020000,
|
||||
0000100010001002,
|
||||
0130,
|
||||
1001003000002000,
|
||||
0202,
|
||||
1001003000000030,
|
||||
000000000000000000000000500000000000000008000000,//42
|
||||
|
||||
#GOGOEND
|
||||
3,
|
||||
2002002000000000,
|
||||
1,
|
||||
2022022020020000,
|
||||
12,
|
||||
1001001020000000,
|
||||
12,
|
||||
1001001020000000,
|
||||
1002000000001001,
|
||||
0000200200001001,
|
||||
0202,
|
||||
00200111,
|
||||
1002000000000000,
|
||||
1011000020000000,
|
||||
1011000020000000,
|
||||
1001000000001001,
|
||||
0002001010000000,
|
||||
1001000020000000,
|
||||
1002001002001002,
|
||||
000000100000000200000000500000000000000008000000,
|
||||
10010010,
|
||||
0070000000000008,//64
|
||||
|
||||
#GOGOSTART
|
||||
0001001010000002,
|
||||
0000100010001002,
|
||||
0000100010001002,
|
||||
0000100010001002,
|
||||
0000100010001002,
|
||||
0000100010001002,
|
||||
0000100020020000,
|
||||
0000100010001002,
|
||||
0130,
|
||||
1001003000002000,
|
||||
500000000000000008000000100000000000100000000000,
|
||||
1001003000000030,
|
||||
03,
|
||||
10112000,
|
||||
0000111020000000,
|
||||
1000101010001003,
|
||||
,
|
||||
2222,
|
||||
1010100101030000,//83
|
||||
|
||||
#GOGOEND
|
||||
,
|
||||
,
|
||||
#END
|
||||
|
||||
COURSE:Normal
|
||||
LEVEL:5
|
||||
BALLOON:6,10
|
||||
SCOREINIT:740
|
||||
SCOREDIFF:190
|
||||
|
||||
#START
|
||||
3003,
|
||||
,
|
||||
0001001000001003,
|
||||
0000000700000000,
|
||||
00000800,
|
||||
1120,
|
||||
1120,
|
||||
10112000,
|
||||
10112000,
|
||||
1120,
|
||||
1120,
|
||||
1000101010001003,
|
||||
,
|
||||
10112000,
|
||||
00112000,
|
||||
10112000,
|
||||
00112000,
|
||||
10112000,
|
||||
00112000,
|
||||
1000101020000003,
|
||||
,
|
||||
1111,
|
||||
1111,
|
||||
1111,
|
||||
1130,
|
||||
1111,
|
||||
1130,
|
||||
10010010,
|
||||
03000000,//29
|
||||
|
||||
#GOGOSTART
|
||||
0001000010000002,
|
||||
0000100010001002,
|
||||
0000000000000002,
|
||||
0000100010001002,
|
||||
0000000000000002,
|
||||
0000100010001002,
|
||||
0000000000000002,
|
||||
0000100010001002,
|
||||
0130,
|
||||
10050000,
|
||||
000000000000000008000000000000000000000000000000,
|
||||
3003003000000030,
|
||||
000000000000000000000000500000000000000008000000,//42
|
||||
|
||||
#GOGOEND
|
||||
3,
|
||||
,
|
||||
1,
|
||||
2000000020020000,
|
||||
12,
|
||||
1001000020000000,
|
||||
12,
|
||||
1001000020000000,
|
||||
1002000000001001,
|
||||
0000200200000000,
|
||||
0202,
|
||||
00200110,
|
||||
1002000000000000,
|
||||
1001000020000000,
|
||||
1001000020000000,
|
||||
1001000000000000,
|
||||
3003000000000000,
|
||||
1001000020000000,
|
||||
10010010,
|
||||
000000100000000000000000500000000000000008000000,
|
||||
30030030,
|
||||
000000600000000000000000000000000008000000000000,//64
|
||||
|
||||
#GOGOSTART
|
||||
0001000010000002,
|
||||
0000100010001002,
|
||||
0000100010000002,
|
||||
0000100010001002,
|
||||
0000000000000002,
|
||||
0000100010001002,
|
||||
0000100010000002,
|
||||
0000100010001002,
|
||||
0130,
|
||||
10050000,
|
||||
000000000000000008000000000000000000000000000000,
|
||||
1001003000000030,
|
||||
03,
|
||||
10112000,
|
||||
10112000,
|
||||
10111010,
|
||||
7,
|
||||
00000800,
|
||||
1000100101030000,//83
|
||||
|
||||
#GOGOEND
|
||||
,
|
||||
,
|
||||
#END
|
||||
|
||||
COURSE:Easy
|
||||
LEVEL:4
|
||||
BALLOON:8,6,10
|
||||
SCOREINIT:530
|
||||
SCOREDIFF:130
|
||||
|
||||
#START
|
||||
3007,
|
||||
,
|
||||
0000800000000009,
|
||||
0000000000090000,
|
||||
8,
|
||||
31,
|
||||
1110,
|
||||
11,
|
||||
1110,
|
||||
31,
|
||||
1110,
|
||||
1000000010000003,
|
||||
,
|
||||
1110,
|
||||
1110,
|
||||
1110,
|
||||
1110,
|
||||
1120,
|
||||
1120,
|
||||
1120,
|
||||
1120,
|
||||
1111,
|
||||
1111,
|
||||
12,
|
||||
1,
|
||||
1111,
|
||||
1111,
|
||||
3003,
|
||||
03000000,//29
|
||||
|
||||
#GOGOSTART
|
||||
0111,
|
||||
0111,
|
||||
0111,
|
||||
0111,
|
||||
0111,
|
||||
0222,
|
||||
0222,
|
||||
0222,
|
||||
21,
|
||||
10050000,
|
||||
000000000000000008000000000000000000000000000000,
|
||||
30030003,
|
||||
03,//42
|
||||
|
||||
#GOGOEND
|
||||
3,
|
||||
0001,
|
||||
0011,
|
||||
,
|
||||
1,
|
||||
12,
|
||||
1,
|
||||
12,
|
||||
3003000000000000,
|
||||
12,
|
||||
1,
|
||||
12,
|
||||
3003000000000000,
|
||||
12,
|
||||
1,
|
||||
12,
|
||||
3003000000000000,
|
||||
12,
|
||||
10010010,
|
||||
01001000,
|
||||
30030030,
|
||||
000000600000000000000000000000000008000000000000,//64
|
||||
|
||||
#GOGOSTART
|
||||
0111,
|
||||
0111,
|
||||
0111,
|
||||
0111,
|
||||
0111,
|
||||
0222,
|
||||
0222,
|
||||
0222,
|
||||
21,
|
||||
10050000,
|
||||
000000000000000008000000000000000000000000000000,
|
||||
10010001,
|
||||
01,
|
||||
1111,
|
||||
1011,
|
||||
1122,
|
||||
7,
|
||||
00000800,
|
||||
3000000300030000,//83
|
||||
|
||||
#GOGOEND
|
||||
,
|
||||
,
|
||||
#END
|
||||
Reference in New Issue
Block a user