update
This commit is contained in:
526
tja/734.tja
Normal file
526
tja/734.tja
Normal file
@@ -0,0 +1,526 @@
|
||||
//TJADB Project
|
||||
TITLE:Super D&D ~Kanzen ni Lead Shite I-my-me~
|
||||
TITLEJA:スーパーD&D ~完全にリードしてアイマイミー~
|
||||
SUBTITLE:--MURATATAM & Ladybeard
|
||||
BPM:180
|
||||
WAVE:Super DandD Kanzen ni Lead Shite I-my-me.ogg
|
||||
OFFSET:-1.484
|
||||
DEMOSTART:70.139
|
||||
|
||||
COURSE:Oni
|
||||
LEVEL:10
|
||||
SCOREINIT:260
|
||||
SCOREDIFF:80
|
||||
|
||||
|
||||
#START
|
||||
|
||||
|
||||
#GOGOSTART
|
||||
3022202022202022,
|
||||
2020222020222020,
|
||||
3022202022202022,
|
||||
1022202220202000,//4
|
||||
|
||||
#GOGOEND
|
||||
3021203022203021,
|
||||
2030222030221020,
|
||||
6,
|
||||
000000000000000000000008000000000000400000000000,//8
|
||||
|
||||
#GOGOSTART
|
||||
1111211121211121,
|
||||
2111212121212211,
|
||||
1111211121211121,
|
||||
2211221121212211,
|
||||
1111211121211121,
|
||||
2111212121212211,
|
||||
1111211121211121,
|
||||
2211221121212000,//16
|
||||
|
||||
#GOGOEND
|
||||
3021203022203021,
|
||||
2030222011112020,
|
||||
1011201011200010,
|
||||
0011201011200010,
|
||||
0011201011200030,
|
||||
000000200000200200100000202020100000200000100000,
|
||||
0011201011200010,
|
||||
0011201011200010,
|
||||
0011201011200030,
|
||||
000000200000200200100000202020100000100000000000,
|
||||
1011201011201011,
|
||||
1011201011201111,
|
||||
1011201011201030,
|
||||
000000200200100000202020100000200200100000100000,
|
||||
0011201011201011,
|
||||
1011201011201111,
|
||||
1011201011201030,
|
||||
000000200200100000202020100000200200100000000000,
|
||||
1011201020112010,
|
||||
1011201020112010,
|
||||
1011201022112010,
|
||||
1022101022112010,
|
||||
1011201020112010,
|
||||
1011201020112010,
|
||||
1011201022112010,
|
||||
1111201000202211,
|
||||
1011201020112010,
|
||||
1011201020112010,
|
||||
1011201022112010,
|
||||
1022101022112010,
|
||||
1011201120112011,
|
||||
1011201120112011,
|
||||
1111201011112011,
|
||||
1111201011112011,
|
||||
1111201011112020,
|
||||
33330000,//52
|
||||
|
||||
#GOGOSTART
|
||||
1020112010201120,
|
||||
1020112011221020,
|
||||
1020112010201120,
|
||||
1020112011221020,
|
||||
1020112010201122,
|
||||
1020112210201120,
|
||||
3022112030221120,
|
||||
300000202020200200100100200200100100100000000000,
|
||||
1020112010201120,
|
||||
1020112011221020,
|
||||
1020112010201120,
|
||||
1020112011221020,
|
||||
1020112010201122,
|
||||
1020112210201120,
|
||||
3022112030221120,
|
||||
300000202020200200100100200200100100100000000000,//68
|
||||
|
||||
#MEASURE 8/4
|
||||
#SCROLL 0.5
|
||||
#GOGOEND
|
||||
10001010201020221020101020102011,
|
||||
20100010201020221020101020102022,//70
|
||||
|
||||
#GOGOSTART
|
||||
10111010101121101011101110122210,
|
||||
1033//72
|
||||
|
||||
#GOGOEND
|
||||
3000,
|
||||
10000010201020221020101020102011,
|
||||
20100010201020221020101020011010,//74
|
||||
|
||||
#GOGOSTART
|
||||
10111011101121101011101110122210,
|
||||
1033//76-1
|
||||
|
||||
#GOGOEND
|
||||
3000,//76-2
|
||||
|
||||
#MEASURE 4/4
|
||||
#SCROLL 1
|
||||
#GOGOSTART
|
||||
1111112111111122,
|
||||
1121112211211122,
|
||||
1111112111111122,
|
||||
500000000000000000000000000000000000000008000000,
|
||||
2111112111112211,
|
||||
2111221121112211,
|
||||
500000000000000000000000000008000000100100100000,
|
||||
2111112111112211,
|
||||
500000000000000000000000000008000000100100100000,
|
||||
2111112211112211,
|
||||
500000000000000000000000000008000000100100100000,
|
||||
2211112211112210,
|
||||
3021203021203060,
|
||||
,
|
||||
000000000000000000000000000000000000000000000008,//91
|
||||
|
||||
#GOGOEND
|
||||
,
|
||||
,
|
||||
#END
|
||||
|
||||
COURSE:Hard
|
||||
LEVEL:7
|
||||
SCOREINIT:420
|
||||
SCOREDIFF:120
|
||||
|
||||
#START
|
||||
#GOGOSTART
|
||||
3,
|
||||
,
|
||||
3,
|
||||
3,//4
|
||||
|
||||
#GOGOEND
|
||||
30030030,
|
||||
0030000011103000,
|
||||
6,
|
||||
000000000000000000000008000000000000400000000000,//8
|
||||
|
||||
#GOGOSTART
|
||||
1011100010100010,
|
||||
1011101010001000,
|
||||
1011100010100010,
|
||||
1011101020202000,
|
||||
1011100010100010,
|
||||
1011101010001000,
|
||||
1011100010100010,
|
||||
1011101020202000,//16
|
||||
|
||||
#GOGOEND
|
||||
30030030,
|
||||
03003000,
|
||||
11211201,
|
||||
01211201,
|
||||
01211203,
|
||||
00000001,
|
||||
01211201,
|
||||
01211201,
|
||||
01211203,
|
||||
,
|
||||
11211201,
|
||||
01211201,
|
||||
01211203,
|
||||
00000001,
|
||||
01211201,
|
||||
01211201,
|
||||
01211203,
|
||||
,
|
||||
10102120,
|
||||
10102120,
|
||||
10102120,
|
||||
1000100020111010,
|
||||
10102120,
|
||||
10102120,
|
||||
10102120,
|
||||
1010101000201111,
|
||||
10102120,
|
||||
10102120,
|
||||
10102120,
|
||||
1000100020111010,
|
||||
10112120,
|
||||
10112120,
|
||||
11221020,
|
||||
11221020,
|
||||
11221020,
|
||||
1,//52
|
||||
|
||||
#GOGOSTART
|
||||
1000100011101010,
|
||||
1000100011101010,
|
||||
1000111010001110,
|
||||
1000111010002000,
|
||||
1000111010102000,
|
||||
1000111010102000,
|
||||
33,
|
||||
3,
|
||||
1000100011101010,
|
||||
1000100011101010,
|
||||
1000111010001110,
|
||||
1000111010002000,
|
||||
1000111010102000,
|
||||
1000111010102000,
|
||||
3333,
|
||||
3,//68
|
||||
|
||||
#MEASURE 8/4
|
||||
#SCROLL 0.5
|
||||
#GOGOEND
|
||||
1001200012112000,
|
||||
1001200012112000,//70
|
||||
|
||||
#GOGOSTART
|
||||
1111100011111111,
|
||||
1033//72
|
||||
|
||||
#GOGOEND
|
||||
3000,
|
||||
1001200012112000,
|
||||
1001200012112000,//74
|
||||
|
||||
#GOGOSTART
|
||||
1111100011111111,
|
||||
1033//76-1
|
||||
|
||||
#GOGOEND
|
||||
3000,//76-2
|
||||
|
||||
#MEASURE 4/4
|
||||
#SCROLL 1
|
||||
#GOGOSTART
|
||||
1110100011101000,
|
||||
1110101011101000,
|
||||
1110100011101000,
|
||||
500000000000000000000000000008000000000000000000,
|
||||
1110111010002000,
|
||||
1110111010002000,
|
||||
500000000000000000000000000008000000100100100000,
|
||||
10010010,
|
||||
500000000000000000000000000008000000200200200000,
|
||||
20020020,
|
||||
500000000000000000000000000008000000100100100000,
|
||||
10010010,
|
||||
30030036,
|
||||
,
|
||||
000000000000000000000000000000000000000000000008,//91
|
||||
|
||||
#GOGOEND
|
||||
,
|
||||
,
|
||||
#END
|
||||
|
||||
COURSE:Normal
|
||||
LEVEL:6
|
||||
|
||||
#START
|
||||
#GOGOSTART
|
||||
3,
|
||||
,
|
||||
3,
|
||||
3,//4
|
||||
|
||||
#GOGOEND
|
||||
30030030,
|
||||
03003330,
|
||||
6,
|
||||
000000000000000000000008000000000000000000000000,//8
|
||||
|
||||
#GOGOSTART
|
||||
1,
|
||||
0011,
|
||||
10000001,
|
||||
10001110,
|
||||
1,
|
||||
0011,
|
||||
10000001,
|
||||
10001110,//16
|
||||
|
||||
#GOGOEND
|
||||
30030030,
|
||||
03003000,
|
||||
11101001,
|
||||
01101001,
|
||||
01101003,
|
||||
00000001,
|
||||
01101001,
|
||||
01101001,
|
||||
01101003,
|
||||
,
|
||||
11101001,
|
||||
01101001,
|
||||
01101003,
|
||||
00000001,
|
||||
01101001,
|
||||
01101001,
|
||||
01101003,
|
||||
,
|
||||
1112,
|
||||
1112,
|
||||
1112,
|
||||
10010000,
|
||||
1112,
|
||||
1112,
|
||||
1112,
|
||||
11110000,
|
||||
1112,
|
||||
1112,
|
||||
1112,
|
||||
10010000,
|
||||
1112,
|
||||
1112,
|
||||
11111020,
|
||||
11111020,
|
||||
11111010,
|
||||
1,//52
|
||||
|
||||
#GOGOSTART
|
||||
10101110,
|
||||
10101110,
|
||||
10111011,
|
||||
10111020,
|
||||
10111020,
|
||||
10111020,
|
||||
33,
|
||||
3,
|
||||
10101110,
|
||||
10101110,
|
||||
10111011,
|
||||
10111020,
|
||||
10111020,
|
||||
10111020,
|
||||
3333,
|
||||
3,//68
|
||||
|
||||
#MEASURE 8/4
|
||||
#SCROLL 0.5
|
||||
#GOGOEND
|
||||
10201120,
|
||||
10211020,//70
|
||||
|
||||
#GOGOSTART
|
||||
1111100011111000,
|
||||
33//72
|
||||
|
||||
#GOGOEND
|
||||
30,
|
||||
10201120,
|
||||
10211020,//74
|
||||
|
||||
#GOGOSTART
|
||||
1111100011111000,
|
||||
33//76-1
|
||||
|
||||
#GOGOEND
|
||||
30,//76-2
|
||||
|
||||
#MEASURE 4/4
|
||||
#SCROLL 1
|
||||
#GOGOSTART
|
||||
10101110,
|
||||
10101110,
|
||||
10111020,
|
||||
500000000000000000000000000008000000000000000000,
|
||||
10111020,
|
||||
10111020,
|
||||
500000000000000000000000000008000000000000000000,
|
||||
10010010,
|
||||
500000000000000000000000000008000000000000000000,
|
||||
20020020,
|
||||
500000000000000000000000000008000000000000000000,
|
||||
10010010,
|
||||
30030036,
|
||||
,
|
||||
000000000000000000000000000000000000000000000008,//91
|
||||
|
||||
#GOGOEND
|
||||
,
|
||||
,
|
||||
#END
|
||||
|
||||
COURSE:Easy
|
||||
LEVEL:4
|
||||
|
||||
#START
|
||||
#GOGOSTART
|
||||
3,
|
||||
,
|
||||
3,
|
||||
3,//4
|
||||
|
||||
#GOGOEND
|
||||
30030030,
|
||||
03003030,
|
||||
6,
|
||||
000000000000000000000008000000000000000000000000,//8
|
||||
|
||||
#GOGOSTART
|
||||
1,
|
||||
0011,
|
||||
1,
|
||||
1011,
|
||||
1,
|
||||
0011,
|
||||
1,
|
||||
1011,//16
|
||||
|
||||
#GOGOEND
|
||||
10010010,
|
||||
01001000,
|
||||
10101001,
|
||||
00101001,
|
||||
00101003,
|
||||
00000001,
|
||||
00101001,
|
||||
00101001,
|
||||
00101003,
|
||||
,
|
||||
10101001,
|
||||
00101001,
|
||||
00101003,
|
||||
00000001,
|
||||
00101001,
|
||||
00101001,
|
||||
00101003,
|
||||
,
|
||||
11,
|
||||
1111,
|
||||
11,
|
||||
2,
|
||||
11,
|
||||
1111,
|
||||
11,
|
||||
2,
|
||||
11,
|
||||
1111,
|
||||
11,
|
||||
2,
|
||||
11,
|
||||
1111,
|
||||
12,
|
||||
12,
|
||||
1111,
|
||||
1,//52
|
||||
|
||||
#GOGOSTART
|
||||
11,
|
||||
1111,
|
||||
1022,
|
||||
2,
|
||||
1011,
|
||||
1110,
|
||||
33,
|
||||
3,
|
||||
1,
|
||||
1111,
|
||||
1022,
|
||||
2,
|
||||
1011,
|
||||
1110,
|
||||
33,
|
||||
3,//68
|
||||
|
||||
#MEASURE 8/4
|
||||
#SCROLL 0.5
|
||||
#GOGOEND
|
||||
1212,
|
||||
1210,//70
|
||||
|
||||
#GOGOSTART
|
||||
11101110,
|
||||
33//72
|
||||
|
||||
#GOGOEND
|
||||
30,
|
||||
1212,
|
||||
1210,//74
|
||||
|
||||
#GOGOSTART
|
||||
11101110,
|
||||
33//76-1
|
||||
|
||||
#GOGOEND
|
||||
30,//76-2
|
||||
|
||||
#MEASURE 4/4
|
||||
#SCROLL 1
|
||||
#GOGOSTART
|
||||
500000000000000000000008000000000000000000000000,
|
||||
1111,
|
||||
1022,
|
||||
500000000000000000000008000000000000000000000000,
|
||||
1011,
|
||||
1110,
|
||||
500000000000000000000008000000000000000000000000,
|
||||
10010010,
|
||||
500000000000000000000008000000000000000000000000,
|
||||
20020020,
|
||||
500000000000000000000008000000000000000000000000,
|
||||
10010010,
|
||||
30030036,
|
||||
,
|
||||
000000000000000000000000000000000000000000000008,//91
|
||||
|
||||
#GOGOEND
|
||||
|
||||
#END
|
||||
Reference in New Issue
Block a user