update
This commit is contained in:
897
tja/79.tja
Normal file
897
tja/79.tja
Normal file
@@ -0,0 +1,897 @@
|
||||
//TJADB Project
|
||||
TITLE:Orpheus in the Underworld Overture
|
||||
TITLEJA:「天国と地獄」序曲
|
||||
SUBTITLE:--Jacques Offenbach
|
||||
SUBTITLEJA:オッフェンバック
|
||||
BPM:160
|
||||
WAVE:Orpheus in the Underworld Overture.ogg
|
||||
OFFSET:-2.026
|
||||
DEMOSTART:41.805
|
||||
|
||||
COURSE:Oni
|
||||
LEVEL:6
|
||||
BALLOON:45,45,45
|
||||
SCOREINIT:490
|
||||
SCOREDIFF:120
|
||||
|
||||
|
||||
#START
|
||||
|
||||
|
||||
,
|
||||
#BPMCHANGE 158.95
|
||||
,
|
||||
,
|
||||
#BPMCHANGE 162.98
|
||||
1000000110000000,
|
||||
#BPMCHANGE 157.81
|
||||
#SCROLL 1.02
|
||||
1000000110000000,
|
||||
#BPMCHANGE 161.2
|
||||
#SCROLL 1
|
||||
1001100010011001,
|
||||
#BPMCHANGE 159.7
|
||||
1001100110011000,
|
||||
|
||||
#BPMCHANGE 160.99
|
||||
#SECTION
|
||||
#BRANCHSTART p,75,90
|
||||
#N
|
||||
1022202010202020,
|
||||
#BPMCHANGE 159.7
|
||||
12212120,
|
||||
21122112,
|
||||
12121212,
|
||||
12221222,
|
||||
12212120,
|
||||
#BPMCHANGE 162.05
|
||||
21122112,
|
||||
#BPMCHANGE 159.49
|
||||
12121110,
|
||||
#BPMCHANGE 160.45
|
||||
3333,
|
||||
#BPMCHANGE 159.02
|
||||
2011102010201000,
|
||||
3333,
|
||||
#BPMCHANGE 160.17
|
||||
1022202010201000,
|
||||
#BPMCHANGE 159.69
|
||||
3333,
|
||||
#BPMCHANGE 161.86
|
||||
2011102010122000,
|
||||
#BPMCHANGE 157.58
|
||||
#SCROLL 1.01
|
||||
3333,
|
||||
#MEASURE 6/4
|
||||
#BPMCHANGE 159.91
|
||||
#SCROLL 1
|
||||
102220201000200010002000,
|
||||
#MEASURE 4/4
|
||||
#BPMCHANGE 161.38
|
||||
11221122,
|
||||
#BPMCHANGE 158.84
|
||||
#SCROLL 1.01
|
||||
2002200220022002,
|
||||
#BPMCHANGE 157.9
|
||||
#SCROLL 1.02
|
||||
2002200220022000,
|
||||
|
||||
#E
|
||||
1022202010222020,
|
||||
#BPMCHANGE 159.7
|
||||
1022201020102000,
|
||||
2011102020111020,
|
||||
12121212,
|
||||
1022202010222020,
|
||||
1022201020102000,
|
||||
#BPMCHANGE 162.05
|
||||
2011102020111020,
|
||||
#BPMCHANGE 159.49
|
||||
12121110,
|
||||
#BPMCHANGE 160.45
|
||||
4433,
|
||||
#BPMCHANGE 159.02
|
||||
2011102010201000,
|
||||
4433,
|
||||
#BPMCHANGE 160.17
|
||||
1022202010201000,
|
||||
#BPMCHANGE 159.69
|
||||
4433,
|
||||
#BPMCHANGE 161.86
|
||||
2011102010122000,
|
||||
#BPMCHANGE 157.58
|
||||
#SCROLL 1.01
|
||||
4433,
|
||||
#MEASURE 6/4
|
||||
#BPMCHANGE 159.91
|
||||
#SCROLL 1
|
||||
102220201000200010002000,
|
||||
#MEASURE 4/4
|
||||
#BPMCHANGE 161.38
|
||||
1110202011102020,
|
||||
#BPMCHANGE 158.84
|
||||
#SCROLL 1.01
|
||||
2002200220022002,
|
||||
#BPMCHANGE 157.9
|
||||
#SCROLL 1.02
|
||||
2002200220022000,
|
||||
|
||||
#M
|
||||
1011202010221010,
|
||||
#BPMCHANGE 159.7
|
||||
1011201022102000,
|
||||
2011102020111020,
|
||||
1120102011201020,
|
||||
1011202010221010,
|
||||
1010201022102000,
|
||||
#BPMCHANGE 162.05
|
||||
2011102020111020,
|
||||
#BPMCHANGE 159.49
|
||||
1120112022101000,
|
||||
#BPMCHANGE 160.45
|
||||
4343,
|
||||
#BPMCHANGE 159.02
|
||||
2011102022101000,
|
||||
4343,
|
||||
#BPMCHANGE 160.17
|
||||
1022102022101000,
|
||||
#BPMCHANGE 159.69
|
||||
4343,
|
||||
#BPMCHANGE 161.86
|
||||
2011102022101000,
|
||||
#BPMCHANGE 157.58
|
||||
#SCROLL 1.01
|
||||
4343,
|
||||
#MEASURE 6/4
|
||||
#BPMCHANGE 159.91
|
||||
#SCROLL 1
|
||||
101120202010221020102210,
|
||||
#MEASURE 4/4
|
||||
#BPMCHANGE 161.38
|
||||
2010221020102210,
|
||||
#BPMCHANGE 158.84
|
||||
#SCROLL 1.01
|
||||
2002200220022002,
|
||||
#BPMCHANGE 157.9
|
||||
#SCROLL 1.02
|
||||
2002200220022000,
|
||||
|
||||
#GOGOSTART
|
||||
#BPMCHANGE 163.31
|
||||
#SCROLL 1
|
||||
#SECTION
|
||||
#BRANCHSTART p,75,90
|
||||
#N
|
||||
500000000000000008000000100000200000100000200000,
|
||||
#BPMCHANGE 159.39
|
||||
#SCROLL 1.02
|
||||
30301212,
|
||||
10101212,
|
||||
12221111,
|
||||
#BPMCHANGE 160.28
|
||||
#SCROLL 1
|
||||
500000000000000008000000100000200000100000200000,
|
||||
30301212,
|
||||
30301212,
|
||||
#BPMCHANGE 158.81
|
||||
#SCROLL 1.01
|
||||
12111030,
|
||||
#BPMCHANGE 160.52
|
||||
#SCROLL 1
|
||||
500000000000000008000000100000200000100000200000,
|
||||
3000300010222020,
|
||||
1000100010222020,
|
||||
#BPMCHANGE 158.1
|
||||
#SCROLL 1.01
|
||||
1022202010111010,
|
||||
#BPMCHANGE 160.09
|
||||
#SCROLL 1
|
||||
500000000000000008000000100000200200200000200000,
|
||||
3000300020111010,
|
||||
#BPMCHANGE 160.02
|
||||
4000400010222020,
|
||||
1011101010003000,
|
||||
#GOGOEND
|
||||
#BPMCHANGE 159.62
|
||||
1022202010111020,
|
||||
1022201110222000,
|
||||
#BPMCHANGE 159.91
|
||||
1011101010111010,
|
||||
1120102011201020,
|
||||
1022202010111020,
|
||||
1022201110222000,
|
||||
#BPMCHANGE 159.8
|
||||
11102220,
|
||||
#BPMCHANGE 159.95
|
||||
1011100020222000,
|
||||
1111100022222000,
|
||||
1011101110111011,
|
||||
#BPMCHANGE 159.25
|
||||
1011101110111110,
|
||||
|
||||
#E
|
||||
500000000000000008000000100000200000100000200000,
|
||||
#BPMCHANGE 159.39
|
||||
#SCROLL 1.02
|
||||
30401212,
|
||||
10101212,
|
||||
1022202010111010,
|
||||
#BPMCHANGE 160.28
|
||||
#SCROLL 1
|
||||
500000000000000008000000100000200000100000200000,
|
||||
30401212,
|
||||
30401212,
|
||||
#BPMCHANGE 158.81
|
||||
#SCROLL 1.01
|
||||
1020111010004000,
|
||||
#BPMCHANGE 160.52
|
||||
#SCROLL 1
|
||||
500000000000000008000000100000200000100000200000,
|
||||
3000400010222020,
|
||||
1000200010222020,
|
||||
#BPMCHANGE 158.1
|
||||
#SCROLL 1.01
|
||||
1022202010111010,
|
||||
#BPMCHANGE 160.09
|
||||
#SCROLL 1
|
||||
500000000000000008000000100000200200200000200000,
|
||||
3000400020111020,
|
||||
#BPMCHANGE 160.02
|
||||
4000300010222020,
|
||||
1011101010004000,
|
||||
#GOGOEND
|
||||
#BPMCHANGE 159.62
|
||||
1022202010111020,
|
||||
1022201110222000,
|
||||
#BPMCHANGE 159.91
|
||||
1011102010111020,
|
||||
1120102011201020,
|
||||
1022202010111020,
|
||||
1022201110222000,
|
||||
#BPMCHANGE 159.8
|
||||
21102110,
|
||||
#BPMCHANGE 159.95
|
||||
2011100020111000,
|
||||
1111100022222000,
|
||||
1011201110112011,
|
||||
#BPMCHANGE 159.25
|
||||
1011201110111110,
|
||||
|
||||
#M
|
||||
500000000000000008000000100000200200100000200000,
|
||||
#BPMCHANGE 159.39
|
||||
#SCROLL 1.02
|
||||
1110200010221020,
|
||||
1110200010221020,
|
||||
1022202010111010,
|
||||
#BPMCHANGE 160.28
|
||||
#SCROLL 1
|
||||
500000000000000008000000100000200200100000200000,
|
||||
1110200010221020,
|
||||
1110200010221020,
|
||||
#BPMCHANGE 158.81
|
||||
#SCROLL 1.01
|
||||
1020112010004000,
|
||||
#BPMCHANGE 160.52
|
||||
#SCROLL 1
|
||||
500000000000000008000000100000200200100000200000,
|
||||
1110200010222020,
|
||||
1110200010222020,
|
||||
#BPMCHANGE 158.1
|
||||
#SCROLL 1.01
|
||||
1022202010111010,
|
||||
#BPMCHANGE 160.09
|
||||
#SCROLL 1
|
||||
500000000000000008000000100000200200200000200000,
|
||||
1110200020111020,
|
||||
#BPMCHANGE 160.02
|
||||
2220200010221010,
|
||||
1022102010004000,
|
||||
|
||||
#GOGOEND
|
||||
#BPMCHANGE 159.62
|
||||
1011202020111020,
|
||||
1011201022102000,
|
||||
#BPMCHANGE 159.91
|
||||
2011102020111020,
|
||||
1120102011201020,
|
||||
1011202020221020,
|
||||
1011201022102000,
|
||||
#BPMCHANGE 159.8
|
||||
21102110,
|
||||
#BPMCHANGE 159.95
|
||||
2011100020111000,
|
||||
2211100022222000,
|
||||
2211100011201120,
|
||||
#BPMCHANGE 159.25
|
||||
1120112011221120,
|
||||
|
||||
#GOGOSTART
|
||||
#BPMCHANGE 160.15
|
||||
#SECTION
|
||||
#BRANCHSTART p,75,90
|
||||
#N
|
||||
600000000000000008000000100000200100200000200000,
|
||||
3000300010212020,
|
||||
3000300010212010,
|
||||
1022202010111010,
|
||||
600000000000000008000000100000200100200000200000,
|
||||
3000300010212020,
|
||||
#BPMCHANGE 159.14
|
||||
3000300010212010,
|
||||
#BPMCHANGE 159.91
|
||||
3111,
|
||||
1011201120112000,
|
||||
#BPMCHANGE 159.53
|
||||
3111,
|
||||
1011201120112000,
|
||||
#BPMCHANGE 159.99
|
||||
4343,
|
||||
22112211,
|
||||
2220111022201110,
|
||||
2222111122221110,
|
||||
9,
|
||||
,
|
||||
,
|
||||
08000000,
|
||||
#SCROLL 1.01
|
||||
1001100110011001,
|
||||
#BPMCHANGE 161.84
|
||||
#SCROLL 1
|
||||
13,
|
||||
#BPMCHANGE 160.63
|
||||
33,
|
||||
#BPMCHANGE 160
|
||||
6,
|
||||
000000000008000000000000000000000000000000000000,
|
||||
|
||||
#E
|
||||
600000000000000008000000100000200100200000200000,
|
||||
3000400010212020,
|
||||
3000400010212020,
|
||||
1022202010111010,
|
||||
600000000000000008000000100000200100200000200000,
|
||||
3000400010212020,
|
||||
#BPMCHANGE 159.14
|
||||
3000400010212010,
|
||||
#BPMCHANGE 159.91
|
||||
3111,
|
||||
1011201120112000,
|
||||
#BPMCHANGE 159.53
|
||||
3111,
|
||||
1011201120112000,
|
||||
#BPMCHANGE 159.99
|
||||
4343,
|
||||
22112211,
|
||||
2220111022201110,
|
||||
2222111122221110,
|
||||
9,
|
||||
,
|
||||
,
|
||||
08000000,
|
||||
#SCROLL 1.01
|
||||
1001100110011001,
|
||||
#BPMCHANGE 161.84
|
||||
#SCROLL 1
|
||||
14,
|
||||
#BPMCHANGE 160.63
|
||||
34,
|
||||
#BPMCHANGE 160
|
||||
6,
|
||||
000000000008000000000000000000000000000000000000,
|
||||
|
||||
#M
|
||||
600000000000000008000000100000200100200000200000,
|
||||
1011202010212020,
|
||||
1011202010212020,
|
||||
1022202010111010,
|
||||
600000000000000008000000100000200100200000200000,
|
||||
1011202010212020,
|
||||
#BPMCHANGE 159.14
|
||||
1011202010212010,
|
||||
#BPMCHANGE 159.91
|
||||
4112,
|
||||
2021201020212010,
|
||||
#BPMCHANGE 159.53
|
||||
4112,
|
||||
1021201020212010,
|
||||
#BPMCHANGE 159.99
|
||||
1110222011102220,
|
||||
1110222011102220,
|
||||
2220111022201110,
|
||||
2222111122221110,
|
||||
9,
|
||||
,
|
||||
,
|
||||
08000000,
|
||||
#SCROLL 1.01
|
||||
1001100110011001,
|
||||
#BPMCHANGE 161.84
|
||||
#SCROLL 1
|
||||
14,
|
||||
#BPMCHANGE 160.63
|
||||
34,
|
||||
#BPMCHANGE 160
|
||||
6,
|
||||
000000000008000000000000000000000000000000000000,
|
||||
|
||||
#GOGOEND
|
||||
|
||||
|
||||
#END
|
||||
|
||||
|
||||
COURSE:Hard
|
||||
LEVEL:5
|
||||
BALLOON:10,10,16
|
||||
SCOREINIT:540
|
||||
SCOREDIFF:120
|
||||
|
||||
|
||||
#START
|
||||
|
||||
|
||||
,
|
||||
#BPMCHANGE 158.95
|
||||
,
|
||||
,
|
||||
#BPMCHANGE 162.98
|
||||
11,
|
||||
#BPMCHANGE 157.81
|
||||
#SCROLL 1.02
|
||||
11,
|
||||
#BPMCHANGE 161.2
|
||||
#SCROLL 1
|
||||
1111,
|
||||
#BPMCHANGE 159.7
|
||||
11111111,
|
||||
#BPMCHANGE 160.99
|
||||
11,
|
||||
#BPMCHANGE 159.7
|
||||
11121110,
|
||||
11,
|
||||
11121112,
|
||||
11,
|
||||
11121110,
|
||||
#BPMCHANGE 162.05
|
||||
11,
|
||||
#BPMCHANGE 159.49
|
||||
100000100000100000200000500000000000000008000000,
|
||||
#BPMCHANGE 160.45
|
||||
1122,
|
||||
#BPMCHANGE 159.02
|
||||
11111110,
|
||||
1122,
|
||||
#BPMCHANGE 160.17
|
||||
11111110,
|
||||
#BPMCHANGE 159.69
|
||||
1122,
|
||||
#BPMCHANGE 161.86
|
||||
11111110,
|
||||
#BPMCHANGE 157.58
|
||||
#SCROLL 1.01
|
||||
1122,
|
||||
#BPMCHANGE 159.91
|
||||
#SCROLL 1
|
||||
#MEASURE 2/4
|
||||
1111,
|
||||
#MEASURE 4/4
|
||||
10111011,
|
||||
#BPMCHANGE 161.38
|
||||
#MEASURE 4/4
|
||||
10111011,
|
||||
#BPMCHANGE 158.84
|
||||
#SCROLL 1.01
|
||||
1001100110011001,
|
||||
#BPMCHANGE 157.9
|
||||
#SCROLL 1.02
|
||||
1001100110011000,
|
||||
|
||||
#BPMCHANGE 163.31
|
||||
#SCROLL 1
|
||||
#GOGOSTART
|
||||
30001111,
|
||||
#BPMCHANGE 159.39
|
||||
#SCROLL 1.02
|
||||
10102222,
|
||||
10101111,
|
||||
500000000000000008000000100000100000100000100000,
|
||||
#BPMCHANGE 160.28
|
||||
#SCROLL 1
|
||||
10001111,
|
||||
10102222,
|
||||
10101111,
|
||||
#BPMCHANGE 158.81
|
||||
#SCROLL 1.01
|
||||
11113040,
|
||||
#BPMCHANGE 160.52
|
||||
#SCROLL 1
|
||||
10001212,
|
||||
10101122,
|
||||
10101212,
|
||||
#BPMCHANGE 158.1
|
||||
#SCROLL 1.01
|
||||
500000000000000008000000100000100000100000100000,
|
||||
#BPMCHANGE 160.09
|
||||
#SCROLL 1
|
||||
10001212,
|
||||
10101122,
|
||||
#BPMCHANGE 160.02
|
||||
10101212,
|
||||
11113040,//43
|
||||
|
||||
#BPMCHANGE 159.62
|
||||
#GOGOEND
|
||||
11,
|
||||
12121210,
|
||||
#BPMCHANGE 159.91
|
||||
11,
|
||||
1110222011102220,
|
||||
11,
|
||||
12121210,
|
||||
#BPMCHANGE 159.8
|
||||
12,
|
||||
#BPMCHANGE 159.95
|
||||
1122,
|
||||
11102220,
|
||||
11221122,
|
||||
#BPMCHANGE 159.25
|
||||
1110222011102220,//54
|
||||
|
||||
#BPMCHANGE 160.15
|
||||
#GOGOSTART
|
||||
30001212,
|
||||
30301122,
|
||||
30301212,
|
||||
500000000000000008000000100000100000100000100000,
|
||||
30001212,
|
||||
30301122,
|
||||
#BPMCHANGE 159.14
|
||||
30301212,
|
||||
#BPMCHANGE 159.91
|
||||
3,
|
||||
12121212,
|
||||
#BPMCHANGE 159.53
|
||||
3,
|
||||
12121212,
|
||||
#BPMCHANGE 159.99
|
||||
3434,
|
||||
3434,
|
||||
11221122,
|
||||
1110222011102220,
|
||||
3333,
|
||||
7008,
|
||||
500000000000000000000000000000000008000000000000,
|
||||
7008,
|
||||
#SCROLL 1.01
|
||||
1001100110011001,
|
||||
#BPMCHANGE 161.84
|
||||
#SCROLL 1
|
||||
14,
|
||||
#BPMCHANGE 160.63
|
||||
34,
|
||||
#BPMCHANGE 160
|
||||
9,
|
||||
0800,//78
|
||||
|
||||
#GOGOEND
|
||||
|
||||
|
||||
#END
|
||||
|
||||
|
||||
COURSE:Normal
|
||||
LEVEL:4
|
||||
BALLOON:10
|
||||
SCOREINIT:580
|
||||
SCOREDIFF:130
|
||||
|
||||
|
||||
#START
|
||||
|
||||
|
||||
,
|
||||
#BPMCHANGE 158.95
|
||||
,
|
||||
,
|
||||
#BPMCHANGE 162.98
|
||||
1,
|
||||
#BPMCHANGE 157.81
|
||||
#SCROLL 1.02
|
||||
1,
|
||||
#BPMCHANGE 161.2
|
||||
#SCROLL 1
|
||||
11,
|
||||
#BPMCHANGE 159.7
|
||||
1111,
|
||||
#BPMCHANGE 160.99
|
||||
11,
|
||||
#BPMCHANGE 159.7
|
||||
10101110,
|
||||
11,
|
||||
11101110,
|
||||
11,
|
||||
10101110,
|
||||
#BPMCHANGE 162.05
|
||||
11,
|
||||
#BPMCHANGE 159.49
|
||||
100000000000100000000000500000000000000008000000,
|
||||
#BPMCHANGE 160.45
|
||||
12,
|
||||
#BPMCHANGE 159.02
|
||||
11101110,
|
||||
12,
|
||||
#BPMCHANGE 160.17
|
||||
11101110,
|
||||
#BPMCHANGE 159.69
|
||||
12,
|
||||
#BPMCHANGE 161.86
|
||||
11111110,
|
||||
#BPMCHANGE 157.58
|
||||
#SCROLL 1.01
|
||||
12,
|
||||
#BPMCHANGE 159.91
|
||||
#SCROLL 1
|
||||
#MEASURE 2/4
|
||||
1111,
|
||||
#MEASURE 4/4
|
||||
1212,
|
||||
#BPMCHANGE 161.38
|
||||
#MEASURE 4/4
|
||||
1212,
|
||||
#BPMCHANGE 158.84
|
||||
#SCROLL 1.01
|
||||
1111,
|
||||
#BPMCHANGE 157.9
|
||||
#SCROLL 1.02
|
||||
1111,//27
|
||||
|
||||
#BPMCHANGE 163.31
|
||||
#SCROLL 1
|
||||
#GOGOSTART
|
||||
10001110,
|
||||
#BPMCHANGE 159.39
|
||||
#SCROLL 1.02
|
||||
20201110,
|
||||
10102220,
|
||||
500000000000000000000000000000000008000000000000,
|
||||
#BPMCHANGE 160.28
|
||||
#SCROLL 1
|
||||
10001110,
|
||||
20201110,
|
||||
10102220,
|
||||
#BPMCHANGE 158.81
|
||||
#SCROLL 1.01
|
||||
11111000,
|
||||
#BPMCHANGE 160.52
|
||||
#SCROLL 1
|
||||
10101110,
|
||||
20201111,
|
||||
10102220,
|
||||
#BPMCHANGE 158.1
|
||||
#SCROLL 1.01
|
||||
500000000000000000000000000000000008000000000000,
|
||||
#BPMCHANGE 160.09
|
||||
#SCROLL 1
|
||||
10101110,
|
||||
20201111,
|
||||
#BPMCHANGE 160.02
|
||||
10102220,
|
||||
11111030,//43
|
||||
|
||||
#BPMCHANGE 159.62
|
||||
#GOGOEND
|
||||
22,
|
||||
10101110,
|
||||
#BPMCHANGE 159.91
|
||||
22,
|
||||
11101110,
|
||||
22,
|
||||
10101110,
|
||||
#BPMCHANGE 159.8
|
||||
22,
|
||||
#BPMCHANGE 159.95
|
||||
22,
|
||||
2222,
|
||||
2222,
|
||||
#BPMCHANGE 159.25
|
||||
33,//54
|
||||
|
||||
#BPMCHANGE 160.15
|
||||
#GOGOSTART
|
||||
30301110,
|
||||
40401110,
|
||||
30302220,
|
||||
500000000000000000000000000000000008000000000000,
|
||||
30301110,
|
||||
40401110,
|
||||
#BPMCHANGE 159.14
|
||||
30302220,
|
||||
#BPMCHANGE 159.91
|
||||
11,
|
||||
1111,
|
||||
#BPMCHANGE 159.53
|
||||
11,
|
||||
1111,
|
||||
#BPMCHANGE 159.99
|
||||
1212,
|
||||
1212,
|
||||
11102220,
|
||||
11102220,
|
||||
11,
|
||||
500000000000000000000000000000000008000000000000,
|
||||
11,
|
||||
500000000000000000000000000000000008000000000000,
|
||||
#SCROLL 1.01
|
||||
1111,
|
||||
#BPMCHANGE 161.84
|
||||
#SCROLL 1
|
||||
34,
|
||||
#BPMCHANGE 160.63
|
||||
34,
|
||||
#BPMCHANGE 160
|
||||
9,
|
||||
9800,//78
|
||||
|
||||
#GOGOEND
|
||||
|
||||
|
||||
#END
|
||||
|
||||
|
||||
COURSE:Easy
|
||||
LEVEL:4
|
||||
BALLOON:8
|
||||
SCOREINIT:550
|
||||
SCOREDIFF:160
|
||||
|
||||
|
||||
#START
|
||||
|
||||
|
||||
,
|
||||
#BPMCHANGE 158.95
|
||||
,
|
||||
,
|
||||
#BPMCHANGE 162.98
|
||||
1,
|
||||
#BPMCHANGE 157.81
|
||||
#SCROLL 1.02
|
||||
1,
|
||||
#BPMCHANGE 161.2
|
||||
#SCROLL 1
|
||||
11,
|
||||
#BPMCHANGE 159.7
|
||||
11,
|
||||
#BPMCHANGE 160.99
|
||||
11,
|
||||
#BPMCHANGE 159.7
|
||||
1110,
|
||||
11,
|
||||
1111,
|
||||
11,
|
||||
1110,
|
||||
#BPMCHANGE 162.05
|
||||
11,
|
||||
#BPMCHANGE 159.49
|
||||
1110,
|
||||
#BPMCHANGE 160.45
|
||||
33,
|
||||
#BPMCHANGE 159.02
|
||||
12,
|
||||
33,
|
||||
#BPMCHANGE 160.17
|
||||
1022,
|
||||
#BPMCHANGE 159.69
|
||||
33,
|
||||
#BPMCHANGE 161.86
|
||||
12,
|
||||
#BPMCHANGE 157.58
|
||||
#SCROLL 1.01
|
||||
33,
|
||||
#BPMCHANGE 159.91
|
||||
#SCROLL 1
|
||||
#MEASURE 2/4
|
||||
1,
|
||||
#MEASURE 4/4
|
||||
12,
|
||||
#BPMCHANGE 161.38
|
||||
#MEASURE 4/4
|
||||
12,
|
||||
#BPMCHANGE 158.84
|
||||
#SCROLL 1.01
|
||||
1111,
|
||||
#BPMCHANGE 157.9
|
||||
#SCROLL 1.02
|
||||
1111,//27
|
||||
|
||||
#BPMCHANGE 163.31
|
||||
#SCROLL 1
|
||||
#GOGOSTART
|
||||
11,
|
||||
#BPMCHANGE 159.39
|
||||
#SCROLL 1.02
|
||||
1110,
|
||||
11,
|
||||
500000000000000000000000000000000008000000000000,
|
||||
#BPMCHANGE 160.28
|
||||
#SCROLL 1
|
||||
11,
|
||||
1110,
|
||||
11,
|
||||
#BPMCHANGE 158.81
|
||||
#SCROLL 1.01
|
||||
1110,
|
||||
#BPMCHANGE 160.52
|
||||
#SCROLL 1
|
||||
12,
|
||||
1112,
|
||||
12,
|
||||
#BPMCHANGE 158.1
|
||||
#SCROLL 1.01
|
||||
500000000000000000000000000000000008000000000000,
|
||||
#BPMCHANGE 160.09
|
||||
#SCROLL 1
|
||||
12,
|
||||
1112,
|
||||
#BPMCHANGE 160.02
|
||||
12,
|
||||
13,//43
|
||||
|
||||
#BPMCHANGE 159.62
|
||||
#GOGOEND
|
||||
22,
|
||||
1110,
|
||||
#BPMCHANGE 159.91
|
||||
22,
|
||||
1111,
|
||||
22,
|
||||
1110,
|
||||
#BPMCHANGE 159.8
|
||||
22,
|
||||
#BPMCHANGE 159.95
|
||||
22,
|
||||
2222,
|
||||
2220,
|
||||
#BPMCHANGE 159.25
|
||||
44,//54
|
||||
|
||||
#BPMCHANGE 160.15
|
||||
#GOGOSTART
|
||||
1012,
|
||||
1112,
|
||||
1112,
|
||||
500000000000000000000000000000000008000000000000,
|
||||
1012,
|
||||
1112,
|
||||
#BPMCHANGE 159.14
|
||||
1112,
|
||||
#BPMCHANGE 159.91
|
||||
1,
|
||||
11,
|
||||
#BPMCHANGE 159.53
|
||||
1,
|
||||
11,
|
||||
#BPMCHANGE 159.99
|
||||
11,
|
||||
11,
|
||||
1111,
|
||||
1111,
|
||||
11,
|
||||
500000000000000000000000000000000008000000000000,
|
||||
11,
|
||||
500000000000000000000000000000000008000000000000,
|
||||
#SCROLL 1.01
|
||||
11,
|
||||
#BPMCHANGE 161.84
|
||||
#SCROLL 1
|
||||
34,
|
||||
#BPMCHANGE 160.63
|
||||
34,
|
||||
#BPMCHANGE 160
|
||||
9,
|
||||
0800,
|
||||
|
||||
#GOGOEND
|
||||
#END
|
||||
|
||||
Reference in New Issue
Block a user