update
This commit is contained in:
449
tja/797.tja
Normal file
449
tja/797.tja
Normal file
@@ -0,0 +1,449 @@
|
||||
//TJADB Project
|
||||
TITLE:PAC TOY-BOX
|
||||
TITLEJA:PAC‐MAN CHAMPIONSHIP EDITION 2
|
||||
SUBTITLE:--Taku Inoue/PAC-MAN CHAMPIONSHIP EDITION 2
|
||||
SUBTITLEJA:PAC TOY-BOX
|
||||
BPM:150
|
||||
WAVE:PAC TOY-BOX.ogg
|
||||
OFFSET:-2.503
|
||||
DEMOSTART:55.300
|
||||
|
||||
COURSE:Oni
|
||||
LEVEL:9
|
||||
BALLOON:18,40
|
||||
SCOREINIT:440
|
||||
SCOREDIFF:110
|
||||
|
||||
|
||||
#START
|
||||
|
||||
|
||||
1000000100000000,
|
||||
1000000100000000,
|
||||
1000000100000000,
|
||||
1000200100020020,
|
||||
1000000100000000,
|
||||
1000000100000000,
|
||||
1000000100000000,
|
||||
1000200100020020,
|
||||
1020102100210010,
|
||||
1020102100210020,
|
||||
1020102100210010,
|
||||
1020102100210020,
|
||||
1020102101210120,
|
||||
1120112101210120,
|
||||
70000008,
|
||||
30000000000000001022202010202020,
|
||||
1010201202010120,
|
||||
1020201201020120,
|
||||
1010201202010220,
|
||||
1020201200020120,
|
||||
1010201202010120,
|
||||
1020201201020120,
|
||||
1010201202010220,
|
||||
1020201200020120,
|
||||
3000200200020220,
|
||||
1000200200020220,
|
||||
1000200200020220,
|
||||
1000200200020220,
|
||||
1002002010020020,
|
||||
1022002210220022,
|
||||
1022102210221022,
|
||||
1212121211111111,
|
||||
20111010201110102010101020000000,
|
||||
4000
|
||||
|
||||
#GOGOSTART
|
||||
302101021120,
|
||||
1020102102011220,
|
||||
1020102101021220,
|
||||
1020102100220120,
|
||||
1020102201021120,
|
||||
1020102202011220,
|
||||
1020102201021220,
|
||||
101010101010000200200100000000200200000100200000,
|
||||
|
||||
#GOGOEND
|
||||
4000
|
||||
|
||||
#GOGOSTART
|
||||
302101021120,
|
||||
101000200000100000200100000200000100100200200000,
|
||||
101000200000100000200100000100000200100200200000,
|
||||
101000200000100000200100000000200200000100200000,
|
||||
101000200000100000200200000100000200100100200000,
|
||||
101000200000100000200200000200000100100200200000,
|
||||
101000200000100000200200000200000200100200200000,
|
||||
101010101010000200200500000000000000008000000000,
|
||||
|
||||
#GOGOEND
|
||||
1020001100200011,
|
||||
100000200000000000100100000000200020200000100100,
|
||||
1020001101222011,
|
||||
10202020101010102220101020202020,
|
||||
1020001100220011,
|
||||
1020001100200111,
|
||||
500000000000000000000000000000000000000000000008,
|
||||
00000000201000201011101020201010,
|
||||
000000000000
|
||||
|
||||
#GOGOSTART
|
||||
300000100100200000100200000000101010,
|
||||
101000100000100000100100200000100200000200101010,
|
||||
101000200000100000100100200000100200000000202020,
|
||||
202000200000100000200000100000200100000200101000,
|
||||
100000200000100000100100200000100200000000101010,
|
||||
101000100000100000100100200000100200000200101010,
|
||||
101000200000100000100100200000100200000000202020,
|
||||
202000200000100000200000100000200100000200101000,
|
||||
|
||||
#GOGOEND
|
||||
4000
|
||||
|
||||
#GOGOSTART
|
||||
301201021120,
|
||||
202000100000200000100200000200000100100200200000,
|
||||
101000100000200000100200000100000200100100200000,
|
||||
202000200000100000200100101010000200100200200000,
|
||||
101000100000200000100200000100000200100100200000,
|
||||
202000100000200000100200000200000100100200200000,
|
||||
101000100000200000100200000100000200100100200000,
|
||||
202000100000202000100202000100202000100202000100,
|
||||
|
||||
#GOGOEND
|
||||
7,
|
||||
000000000000000000000000000000000000000000000008,
|
||||
|
||||
|
||||
#END
|
||||
|
||||
|
||||
COURSE:Hard
|
||||
LEVEL:7
|
||||
BALLOON:10,10,28
|
||||
SCOREINIT:740
|
||||
SCOREDIFF:160
|
||||
|
||||
|
||||
#START
|
||||
|
||||
|
||||
1000000100000000,
|
||||
1000000100000000,
|
||||
1000000100000000,
|
||||
2000200200000000,
|
||||
1000000100000000,
|
||||
1000000100000000,
|
||||
1000000100000000,
|
||||
2000200200000000,
|
||||
1000100100010000,
|
||||
1000100100000000,
|
||||
1000100100010000,
|
||||
2000200200000000,
|
||||
1000100100010000,
|
||||
2000200200020000,
|
||||
500000000000000000000000000000000000000008000000,
|
||||
3,
|
||||
1010100202020000,
|
||||
1010100200000000,
|
||||
1010100202020000,
|
||||
1020100200000000,
|
||||
1010100202020000,
|
||||
1010100200000000,
|
||||
1010100202020000,
|
||||
1020100200000000,
|
||||
1000200200020000,
|
||||
1000200200020000,
|
||||
1000200200020000,
|
||||
1000200200020000,
|
||||
1002000010020000,
|
||||
1002000010020000,
|
||||
12121212,
|
||||
500000000000000000000000000000000000000008000000,
|
||||
1011101110111000,
|
||||
4000
|
||||
|
||||
#GOGOSTART
|
||||
300101020000,
|
||||
1010102202020000,
|
||||
1010200101020000,
|
||||
1020102200000000,
|
||||
1010200101020000,
|
||||
1010102202020000,
|
||||
1010200101020000,
|
||||
7008,
|
||||
|
||||
#GOGOEND
|
||||
4000
|
||||
|
||||
#GOGOSTART
|
||||
300101020000,
|
||||
1010102202020000,
|
||||
1010200101020000,
|
||||
1020102200000000,
|
||||
1010200101020000,
|
||||
1010102202020000,
|
||||
1010200101020000,
|
||||
7008,
|
||||
|
||||
#GOGOEND
|
||||
32000200,
|
||||
02000200,
|
||||
02000200,
|
||||
1110100020001110,
|
||||
12000200,
|
||||
12000200,
|
||||
500000000000000000000000000000000000000000000008,
|
||||
0000000011102220,
|
||||
0000
|
||||
|
||||
#GOGOSTART
|
||||
300010110010,
|
||||
0020200020220020,
|
||||
0010100010110020,
|
||||
0020200020220020,
|
||||
1010100010110010,
|
||||
0020200020220020,
|
||||
0010100010110020,
|
||||
0020200020220020,
|
||||
|
||||
#GOGOEND
|
||||
4000
|
||||
|
||||
#GOGOSTART
|
||||
300201020000,
|
||||
1020102102010000,
|
||||
1020100201020000,
|
||||
1020102100020020,
|
||||
1020100201020000,
|
||||
1020102102010000,
|
||||
1020100201020000,
|
||||
1020102100300300,
|
||||
|
||||
#GOGOEND
|
||||
7,
|
||||
000000000000000000000000000000000000000000000008,
|
||||
|
||||
|
||||
#END
|
||||
|
||||
|
||||
COURSE:Normal
|
||||
LEVEL:6
|
||||
BALLOON:60,14
|
||||
SCOREINIT:910
|
||||
SCOREDIFF:220
|
||||
|
||||
|
||||
#START
|
||||
|
||||
|
||||
1,
|
||||
1,
|
||||
1,
|
||||
2000200200000000,
|
||||
1,
|
||||
1,
|
||||
1,
|
||||
2000200200000000,
|
||||
1000100100000000,
|
||||
1000100100000000,
|
||||
1000100100000000,
|
||||
2000200200000000,
|
||||
1000100100000000,
|
||||
2000200200000000,
|
||||
500000000000000000000000000000000008000000000000,
|
||||
3,
|
||||
1000100100000000,
|
||||
1010100100000000,
|
||||
1000100100000000,
|
||||
2020200200000000,
|
||||
1000100100000000,
|
||||
1010100100000000,
|
||||
1000100100000000,
|
||||
2020200200000000,
|
||||
2000200200000000,
|
||||
2000200200000000,
|
||||
2000200200000000,
|
||||
2000200200000000,
|
||||
2002000020020000,
|
||||
2002000020020000,
|
||||
20202222,
|
||||
500000000000000000000000000000000000000000000008,
|
||||
,
|
||||
4000
|
||||
|
||||
#GOGOSTART
|
||||
300200000000,
|
||||
1020100100000000,
|
||||
1000100200000000,
|
||||
1020100200000000,
|
||||
1000100200000000,
|
||||
1020100100000000,
|
||||
1000100200000000,
|
||||
500000000000000000000000000000000008000000000000,
|
||||
|
||||
#GOGOEND
|
||||
4000
|
||||
|
||||
#GOGOSTART
|
||||
300200000000,
|
||||
2010200200000000,
|
||||
1000100200000000,
|
||||
2010200100000000,
|
||||
1000100200000000,
|
||||
2010200200000000,
|
||||
1000100200000000,
|
||||
500000000000000000000000000000000008000000000000,
|
||||
|
||||
#GOGOEND
|
||||
9,
|
||||
,
|
||||
,
|
||||
,
|
||||
,
|
||||
,
|
||||
,
|
||||
8,
|
||||
0000
|
||||
|
||||
#GOGOSTART
|
||||
300010010010,
|
||||
01102000,
|
||||
0000100010010020,
|
||||
02202000,
|
||||
1000100010010010,
|
||||
01102000,
|
||||
0000100010010020,
|
||||
02202000,
|
||||
|
||||
#GOGOEND
|
||||
4000
|
||||
|
||||
#GOGOSTART
|
||||
300300000000,
|
||||
1020100200000000,
|
||||
3000300300000000,
|
||||
1020100200000000,
|
||||
3000300300000000,
|
||||
1020100200000000,
|
||||
3000300300000000,
|
||||
1020100200200000,
|
||||
|
||||
#GOGOEND
|
||||
9,
|
||||
000000000000000000000000000000000000000000000008,
|
||||
|
||||
|
||||
#END
|
||||
|
||||
|
||||
COURSE:Easy
|
||||
LEVEL:4
|
||||
BALLOON:44,11
|
||||
SCOREINIT:700
|
||||
SCOREDIFF:180
|
||||
|
||||
|
||||
#START
|
||||
|
||||
|
||||
1,
|
||||
1,
|
||||
1,
|
||||
2200,
|
||||
1,
|
||||
1,
|
||||
1,
|
||||
2200,
|
||||
1100,
|
||||
1100,
|
||||
1100,
|
||||
2200,
|
||||
1100,
|
||||
1100,
|
||||
500000000000000000000000000000000008000000000000,
|
||||
3,
|
||||
1,
|
||||
1100,
|
||||
1,
|
||||
1100,
|
||||
1,
|
||||
1100,
|
||||
1,
|
||||
1100,
|
||||
2,
|
||||
2,
|
||||
2,
|
||||
2,
|
||||
22,
|
||||
22,
|
||||
2222,
|
||||
500000000000000000000000000000000000000000000008,
|
||||
,
|
||||
0000
|
||||
|
||||
#GOGOSTART
|
||||
300100000000,
|
||||
11100000,
|
||||
1000100100000000,
|
||||
22200000,
|
||||
1000100100000000,
|
||||
11100000,
|
||||
1000100100000000,
|
||||
500000000000000000000000000008000000000000000000,
|
||||
|
||||
#GOGOEND
|
||||
2000
|
||||
|
||||
#GOGOSTART
|
||||
100100000000,
|
||||
11100000,
|
||||
1000100100000000,
|
||||
22200000,
|
||||
1000100100000000,
|
||||
11100000,
|
||||
1000100100000000,
|
||||
500000000000000000000000000000000008000000000000,
|
||||
|
||||
#GOGOEND
|
||||
9,
|
||||
,
|
||||
,
|
||||
,
|
||||
,
|
||||
,
|
||||
,
|
||||
8,
|
||||
0000
|
||||
|
||||
#GOGOSTART
|
||||
300010010000,
|
||||
0110,
|
||||
0000100010010000,
|
||||
0220,
|
||||
1000100010010000,
|
||||
0110,
|
||||
0000100010010000,
|
||||
0220,
|
||||
|
||||
#GOGOEND
|
||||
3000
|
||||
|
||||
#GOGOSTART
|
||||
300300000000,
|
||||
11100000,
|
||||
3000300300000000,
|
||||
22200000,
|
||||
3000300300000000,
|
||||
11100000,
|
||||
3000300300000000,
|
||||
2020200200000000,
|
||||
|
||||
#GOGOEND
|
||||
9,
|
||||
000000000000000000000000000000000000000000000008,
|
||||
|
||||
|
||||
#END
|
||||
|
||||
Reference in New Issue
Block a user