update
This commit is contained in:
374
tja/831.tja
Normal file
374
tja/831.tja
Normal file
@@ -0,0 +1,374 @@
|
||||
//TJADB Project
|
||||
TITLE:Gegege no Kitaro
|
||||
TITLEJA:ゲゲゲの鬼太郎(氷川きよし)
|
||||
SUBTITLE:--Kiyoshi Hikawa/Gegege no Kitaro
|
||||
BPM:116
|
||||
WAVE:Gegege no Kitaro.ogg
|
||||
OFFSET:-2.088
|
||||
DEMOSTART:16.559
|
||||
|
||||
COURSE:Edit
|
||||
LEVEL:10
|
||||
BALLOON:44,22,22
|
||||
SCOREINIT:880
|
||||
SCOREDIFF:210
|
||||
|
||||
|
||||
#START
|
||||
|
||||
|
||||
#GOGOSTART
|
||||
222111222111222211112222,
|
||||
|
||||
#GOGOEND
|
||||
10070000,
|
||||
00000008,
|
||||
220000000000100000001000100000001000000000000000,
|
||||
220000000000100000001000100000001000200000002000,
|
||||
101010100000200000002000101010100000200000002220,
|
||||
100000002000100000002000101010102222200000000000,
|
||||
100200102200,
|
||||
100000001000200000001000100000002000220000000000,
|
||||
101201101202,
|
||||
100000002000100000002000100000002000220000000000,
|
||||
100000001000200000002220200020002000100010001000,
|
||||
100000001000200000002220200020002000100010001000,
|
||||
100011111110200022222220,
|
||||
111010100000222020200000111010100000222020200000,
|
||||
|
||||
#GOGOSTART
|
||||
70000008,
|
||||
300400400111,//17
|
||||
|
||||
#GOGOEND
|
||||
100000002000220000002000100000002000220000002000,
|
||||
100000002000220000002000100010001000220020002000,//19
|
||||
|
||||
#GOGOSTART
|
||||
300000000000220000002000300000001000220000002000,
|
||||
300000002000300000002000300000002222200000000000,//21
|
||||
|
||||
#GOGOEND
|
||||
102202102202,
|
||||
100000001000200000001000100000002000220000000000,
|
||||
101201101202,
|
||||
100000002000100000002000100000002000220000000000,
|
||||
100000001000200000002220200020001000200020001000,
|
||||
100000001000200000002220200020001000200020001000,
|
||||
100011111110200022222220,
|
||||
111010100000222020200000111010100000222020200000,//29
|
||||
|
||||
#GOGOSTART
|
||||
70000008,
|
||||
300400400111,//31
|
||||
|
||||
#GOGOEND
|
||||
100000002000220000002000100000002000220000002000,
|
||||
100000002000220000002000100010001000220020002000,//33
|
||||
|
||||
#GOGOSTART
|
||||
300000000000220000002000300000001000220000002000,
|
||||
302302311202,//35
|
||||
|
||||
#GOGOEND
|
||||
100000000000220000000000100000000000220000000000,
|
||||
110000000000110000000000110010001000202020202222,//37
|
||||
|
||||
#GOGOSTART
|
||||
100000000000220000202222100000001000220000002000,
|
||||
101010101010201010102222200000000000000000000000,//39
|
||||
|
||||
#GOGOEND
|
||||
|
||||
|
||||
#END
|
||||
|
||||
|
||||
COURSE:Oni
|
||||
LEVEL:2
|
||||
BALLOON:25
|
||||
SCOREINIT:1450
|
||||
SCOREDIFF:570
|
||||
|
||||
|
||||
#START
|
||||
|
||||
|
||||
#GOGOSTART
|
||||
7,//1
|
||||
|
||||
#GOGOEND
|
||||
8,
|
||||
,
|
||||
2,
|
||||
200000001101,
|
||||
100201100201,
|
||||
102201100000,
|
||||
12,
|
||||
100000001000100000001000500000000008000000000000,
|
||||
101001101101,
|
||||
2220,
|
||||
101101100000,
|
||||
202202200000,
|
||||
101101200200,
|
||||
500000000000000000000000000000000008000000000000,//15
|
||||
|
||||
#GOGOSTART
|
||||
102201100201,
|
||||
3,//17
|
||||
|
||||
#GOGOEND
|
||||
12,
|
||||
100000001000100000001000500000000008000000000000,//19
|
||||
|
||||
#GOGOSTART
|
||||
100101202202,
|
||||
101101300000,//21
|
||||
|
||||
#GOGOEND
|
||||
12,
|
||||
100000001000100000001000500000000008000000000000,
|
||||
101001101101,
|
||||
2220,
|
||||
101101100000,
|
||||
202202200000,
|
||||
101101202002,
|
||||
500000000000000000000000000000000008000000000000,//29
|
||||
|
||||
#GOGOSTART
|
||||
100201100201,
|
||||
3,//31
|
||||
|
||||
#GOGOEND
|
||||
12,
|
||||
100000001000100000001000500000000008000000000000,//33
|
||||
|
||||
#GOGOSTART
|
||||
100101202202,
|
||||
101101300000,//35
|
||||
|
||||
#GOGOEND
|
||||
200202202200,
|
||||
202202200000,//37
|
||||
|
||||
#GOGOSTART
|
||||
300101202202,
|
||||
101101400000,//39
|
||||
|
||||
#GOGOEND
|
||||
|
||||
|
||||
#END
|
||||
|
||||
|
||||
COURSE:Hard
|
||||
LEVEL:1
|
||||
BALLOON:20
|
||||
SCOREINIT:1570
|
||||
SCOREDIFF:470
|
||||
|
||||
#START
|
||||
#GOGOSTART
|
||||
7,//1
|
||||
|
||||
#GOGOEND
|
||||
8,
|
||||
,
|
||||
2,
|
||||
2,
|
||||
1212,
|
||||
1110,
|
||||
12,
|
||||
1120,
|
||||
12,
|
||||
1120,
|
||||
1110,
|
||||
2220,
|
||||
1122,
|
||||
500000000000000000000000000000000008000000000000,//15
|
||||
|
||||
#GOGOSTART
|
||||
3344,
|
||||
3,//17
|
||||
|
||||
#GOGOEND
|
||||
12,
|
||||
1120,//19
|
||||
|
||||
#GOGOSTART
|
||||
3344,
|
||||
3330,//21
|
||||
|
||||
#GOGOEND
|
||||
12,
|
||||
1120,
|
||||
12,
|
||||
1120,
|
||||
1110,
|
||||
2220,
|
||||
1122,
|
||||
500000000000000000000000000000000008000000000000,//29
|
||||
|
||||
#GOGOSTART
|
||||
3344,
|
||||
3,//31
|
||||
|
||||
#GOGOEND
|
||||
12,
|
||||
1120,//33
|
||||
|
||||
#GOGOSTART
|
||||
3344,
|
||||
3330,//35
|
||||
|
||||
#GOGOEND
|
||||
22,
|
||||
2220,//37
|
||||
|
||||
#GOGOSTART
|
||||
3434,
|
||||
3340,//39
|
||||
|
||||
#GOGOEND
|
||||
,
|
||||
#END
|
||||
|
||||
COURSE:Normal
|
||||
LEVEL:1
|
||||
BALLOON:12
|
||||
|
||||
#START
|
||||
#GOGOSTART
|
||||
7,//1
|
||||
|
||||
#GOGOEND
|
||||
8,
|
||||
,
|
||||
2,
|
||||
2,
|
||||
12,
|
||||
1110,
|
||||
12,
|
||||
1120,
|
||||
12,
|
||||
1120,
|
||||
11,
|
||||
22,
|
||||
1110,
|
||||
500000000000000000000000000000000008000000000000,//15
|
||||
|
||||
#GOGOSTART
|
||||
33,
|
||||
3,//17
|
||||
|
||||
#GOGOEND
|
||||
12,
|
||||
1120,//19
|
||||
|
||||
#GOGOSTART
|
||||
34,
|
||||
3330,//21
|
||||
|
||||
#GOGOEND
|
||||
12,
|
||||
1120,
|
||||
12,
|
||||
1120,
|
||||
11,
|
||||
22,
|
||||
1110,
|
||||
500000000000000000000000000000000008000000000000,//29
|
||||
|
||||
#GOGOSTART
|
||||
33,
|
||||
3,//31
|
||||
|
||||
#GOGOEND
|
||||
12,
|
||||
1120,//33
|
||||
|
||||
#GOGOSTART
|
||||
34,
|
||||
3330,//35
|
||||
|
||||
#GOGOEND
|
||||
22,
|
||||
2220,//37
|
||||
|
||||
#GOGOSTART
|
||||
34,
|
||||
3340,//39
|
||||
|
||||
#GOGOEND
|
||||
,
|
||||
#END
|
||||
|
||||
COURSE:Easy
|
||||
LEVEL:1
|
||||
BALLOON:10
|
||||
|
||||
#START
|
||||
#GOGOSTART
|
||||
7,//1
|
||||
|
||||
#GOGOEND
|
||||
8,
|
||||
,
|
||||
1,
|
||||
1,
|
||||
1,
|
||||
3,
|
||||
11,
|
||||
1,
|
||||
11,
|
||||
1,
|
||||
1,
|
||||
1,
|
||||
11,
|
||||
500000000000000000000000000008000000000000000000,//15
|
||||
|
||||
#GOGOSTART
|
||||
33,
|
||||
3,//17
|
||||
|
||||
#GOGOEND
|
||||
11,
|
||||
1,//19
|
||||
|
||||
#GOGOSTART
|
||||
33,
|
||||
3330,//21
|
||||
|
||||
#GOGOEND
|
||||
11,
|
||||
1,
|
||||
11,
|
||||
1,
|
||||
1,
|
||||
1,
|
||||
11,
|
||||
500000000000000000000000000008000000000000000000,//29
|
||||
|
||||
#GOGOSTART
|
||||
33,
|
||||
3,//31
|
||||
|
||||
#GOGOEND
|
||||
11,
|
||||
1,//33
|
||||
|
||||
#GOGOSTART
|
||||
33,
|
||||
3330,//35
|
||||
|
||||
#GOGOEND
|
||||
2,
|
||||
2,//37
|
||||
|
||||
#GOGOSTART
|
||||
33,
|
||||
3330,//39
|
||||
|
||||
#GOGOEND
|
||||
,
|
||||
#END
|
||||
Reference in New Issue
Block a user