update
This commit is contained in:
315
tja/937.tja
Normal file
315
tja/937.tja
Normal file
@@ -0,0 +1,315 @@
|
||||
//TJADB Project
|
||||
TITLE:Yoru ni Kakeru -Original Version-
|
||||
TITLEJA:夜に駆ける -Original Version-
|
||||
SUBTITLE:--YOASOBI
|
||||
SUBTITLEJA:YOASOBI
|
||||
BPM:130
|
||||
WAVE:Yoru ni Kakeru -Original Version-.ogg
|
||||
OFFSET:-1.962
|
||||
DEMOSTART:75.029
|
||||
|
||||
COURSE:Oni
|
||||
LEVEL:8
|
||||
BALLOON:8
|
||||
SCOREINIT:650
|
||||
SCOREDIFF:178
|
||||
|
||||
|
||||
#START
|
||||
|
||||
|
||||
10021002,
|
||||
100000000000000000200000500000000000000000000008,
|
||||
,
|
||||
,
|
||||
10121012,
|
||||
10121012,
|
||||
500000000000000000000000000000000000000000000008,
|
||||
0000000000002222,
|
||||
|
||||
#GOGOSTART
|
||||
1201102010201222,
|
||||
1201102010201020,
|
||||
2201102010221020,
|
||||
1021012010202222,
|
||||
1201102010201222,
|
||||
1201102010201222,
|
||||
1201102010201020,
|
||||
0011221122112000,
|
||||
|
||||
#GOGOEND
|
||||
1120200211202002,
|
||||
1120200211201000,
|
||||
1120200211202002,
|
||||
1120200211201000,
|
||||
1220200212202002,
|
||||
1220200212201000,
|
||||
1220200212202021,
|
||||
0020202210010010,
|
||||
1120200212102002,
|
||||
1220200212102002,
|
||||
1120200212102002,
|
||||
1220200212102002,
|
||||
1120200212102002,
|
||||
1220200212102002,
|
||||
1120200212102021,
|
||||
0020202210221020,
|
||||
1021021001221020,
|
||||
2021021001221221,
|
||||
0012222100122221,
|
||||
0010201010210120,
|
||||
1020102210202010,
|
||||
1020102210202010,
|
||||
1022102110221021,
|
||||
1011011110000000,
|
||||
|
||||
#GOGOSTART
|
||||
3021012010221020,
|
||||
1021021010221020,
|
||||
1011202210112022,
|
||||
1021012010004040,
|
||||
1021021020221020,
|
||||
1021012010221020,
|
||||
1021102210211022,
|
||||
7008,
|
||||
3021012010221020,
|
||||
1021021010221020,
|
||||
1011202210112022,
|
||||
1021012010004040,
|
||||
1021021010221020,
|
||||
1022122010211120,
|
||||
1021221200202000,
|
||||
|
||||
#GOGOEND
|
||||
3,
|
||||
|
||||
|
||||
#END
|
||||
|
||||
|
||||
COURSE:Hard
|
||||
LEVEL:4
|
||||
BALLOON:10,8,8
|
||||
SCOREINIT:830
|
||||
SCOREDIFF:200
|
||||
|
||||
|
||||
#START
|
||||
|
||||
|
||||
11,
|
||||
100000000000000000000000500000000000000000000008,
|
||||
,
|
||||
,
|
||||
10101012,
|
||||
10101012,
|
||||
500000000000000000000000000000000000000000000008,
|
||||
,//8
|
||||
|
||||
#GOGOSTART
|
||||
12101210,
|
||||
12101210,
|
||||
12101210,
|
||||
12121000,
|
||||
12101210,
|
||||
12101210,
|
||||
12101210,
|
||||
7008,//16
|
||||
|
||||
#GOGOEND
|
||||
1210,
|
||||
10201220,
|
||||
1210,
|
||||
10201220,
|
||||
10201021,
|
||||
10201220,
|
||||
10201021,
|
||||
0010200010010010,
|
||||
10201120,
|
||||
11201220,
|
||||
10201120,
|
||||
11201220,
|
||||
10201120,
|
||||
11201220,
|
||||
10201121,
|
||||
0010200020020020,
|
||||
1001001000102000,
|
||||
1001001000102000,
|
||||
01200120,
|
||||
01201020,
|
||||
12101210,
|
||||
12101210,
|
||||
12121212,
|
||||
1,//40
|
||||
|
||||
#GOGOSTART
|
||||
3232,
|
||||
10121022,
|
||||
11221122,
|
||||
10121022,
|
||||
10121020,
|
||||
10121020,
|
||||
12121212,
|
||||
7008,
|
||||
3232,
|
||||
10121022,
|
||||
11221122,
|
||||
10121022,
|
||||
10121020,
|
||||
10121020,
|
||||
7008,//55
|
||||
|
||||
#GOGOEND
|
||||
3,
|
||||
,
|
||||
,
|
||||
,
|
||||
#END
|
||||
|
||||
COURSE:Normal
|
||||
LEVEL:2
|
||||
BALLOON:6,12,6
|
||||
|
||||
#START
|
||||
11,
|
||||
100000000000000000000000500000000000000000000008,
|
||||
,
|
||||
,
|
||||
1111,
|
||||
1111,
|
||||
500000000000000000000000000000000000000000000008,
|
||||
,//8
|
||||
|
||||
#GOGOSTART
|
||||
1110,
|
||||
1110,
|
||||
1112,
|
||||
1110,
|
||||
1110,
|
||||
1110,
|
||||
1112,
|
||||
7008,//16
|
||||
|
||||
#GOGOEND
|
||||
11,
|
||||
1,
|
||||
11,
|
||||
1,
|
||||
22,
|
||||
2,
|
||||
500000000000000000000000000000000000000008000000,
|
||||
,
|
||||
11,
|
||||
1012,
|
||||
11,
|
||||
1012,
|
||||
11,
|
||||
1012,
|
||||
500000000000000000000000000000000000000008000000,
|
||||
,
|
||||
1002,
|
||||
1002,
|
||||
7,
|
||||
08,
|
||||
1112,
|
||||
1112,
|
||||
3333,
|
||||
3,//40
|
||||
|
||||
#GOGOSTART
|
||||
33,
|
||||
1110,
|
||||
1112,
|
||||
1110,
|
||||
1120,
|
||||
1120,
|
||||
500000000000000000000000000000000000000000000008,
|
||||
,
|
||||
33,
|
||||
1110,
|
||||
1112,
|
||||
1110,
|
||||
1120,
|
||||
1120,
|
||||
7008,//55
|
||||
|
||||
#GOGOEND
|
||||
3,
|
||||
,
|
||||
,
|
||||
,
|
||||
#END
|
||||
|
||||
COURSE:Easy
|
||||
LEVEL:1
|
||||
BALLOON:5,10,5
|
||||
|
||||
#START
|
||||
11,
|
||||
100000000000000000000000500000000000000000000008,
|
||||
,
|
||||
,
|
||||
11,
|
||||
11,
|
||||
500000000000000000000000000000000000000000000008,
|
||||
,//8
|
||||
|
||||
#GOGOSTART
|
||||
11,
|
||||
11,
|
||||
11,
|
||||
2,
|
||||
11,
|
||||
11,
|
||||
11,
|
||||
7008,//16
|
||||
|
||||
#GOGOEND
|
||||
1,
|
||||
1,
|
||||
1,
|
||||
1,
|
||||
2,
|
||||
2,
|
||||
500000000000000000000000000000000000000008000000,
|
||||
,
|
||||
11,
|
||||
1,
|
||||
11,
|
||||
2,
|
||||
11,
|
||||
1,
|
||||
500000000000000000000000000000000000000008000000,
|
||||
,
|
||||
1,
|
||||
2,
|
||||
7,
|
||||
08,
|
||||
11,
|
||||
1,
|
||||
33,
|
||||
3,//40
|
||||
|
||||
#GOGOSTART
|
||||
33,
|
||||
1110,
|
||||
11,
|
||||
1110,
|
||||
1110,
|
||||
1120,
|
||||
500000000000000000000000000000000000000000000008,
|
||||
,
|
||||
33,
|
||||
1110,
|
||||
11,
|
||||
1110,
|
||||
1110,
|
||||
1120,
|
||||
7008,//55
|
||||
|
||||
#GOGOEND
|
||||
3,
|
||||
,
|
||||
,
|
||||
,
|
||||
#END
|
||||
Reference in New Issue
Block a user