update
This commit is contained in:
293
tja/956.tja
Normal file
293
tja/956.tja
Normal file
@@ -0,0 +1,293 @@
|
||||
//TJADB Project
|
||||
//songID: yrsdak
|
||||
TITLE:Dakara Boku wa Ongaku wo Yameta -Original Version-
|
||||
TITLEJA:だから僕は音楽を辞めた -Original Version-
|
||||
SUBTITLE:--Yorushika
|
||||
SUBTITLEJA:ヨルシカ
|
||||
BPM:125
|
||||
WAVE:Dakara Boku wa Ongaku wo Yameta -Original Version-.ogg
|
||||
OFFSET:-2.013
|
||||
DEMOSTART:62.963
|
||||
|
||||
COURSE:Edit
|
||||
LEVEL:8
|
||||
BALLOON:5,6,6
|
||||
SCOREINIT:750
|
||||
SCOREDIFF:203
|
||||
|
||||
|
||||
#START
|
||||
|
||||
|
||||
1022122012221020,
|
||||
1022122012221020,
|
||||
1022122211201022,
|
||||
1122112212201020,
|
||||
1022122012221020,
|
||||
1022122012221210,
|
||||
1000112211201000,
|
||||
2222222212202000,
|
||||
1220112101202110,
|
||||
1220112101201222,
|
||||
1220112101201110,
|
||||
1012012010221110,
|
||||
1220112101202110,
|
||||
1220112101201222,
|
||||
1220112101201110,
|
||||
1012012010202210,
|
||||
1022121011212110,
|
||||
1022121011212120,
|
||||
1022212212102012,
|
||||
1221221211201020,
|
||||
1022201122121020,
|
||||
1022221022121020,
|
||||
1222121011221220,
|
||||
1212121120221010,
|
||||
1002102022102020,
|
||||
1002102022201020,
|
||||
1002102022102020,
|
||||
1021012210201110,
|
||||
1022211120201120,
|
||||
1122202210120120,
|
||||
3001203000102112,
|
||||
100000100200000100700000000000080000200200100100,
|
||||
|
||||
#GOGOSTART
|
||||
1011211020211120,
|
||||
100100200200100000700000000000080000200000200200,
|
||||
1011202212112010,
|
||||
3000222110102210,
|
||||
1011211122120210,
|
||||
100100200200100000700000000000080000200000200200,
|
||||
1010200010122020,
|
||||
|
||||
#GOGOEND
|
||||
500000000000000000000000000000000000000000000008,
|
||||
|
||||
|
||||
#END
|
||||
|
||||
|
||||
COURSE:Oni
|
||||
LEVEL:6
|
||||
BALLOON:6,6,4,4,20
|
||||
SCOREINIT:1080
|
||||
SCOREDIFF:313
|
||||
|
||||
|
||||
#START
|
||||
|
||||
|
||||
1020201022201020,
|
||||
1020201022201020,
|
||||
1020201022200020,
|
||||
1020201022200020,
|
||||
1020201022201020,
|
||||
1020201022201020,
|
||||
0000202220200000,
|
||||
2022202010202000,
|
||||
1020102101201000,
|
||||
1020102101201210,
|
||||
1020102101201010,
|
||||
1002002010201010,
|
||||
1020102101201000,
|
||||
1020102101201210,
|
||||
1020102101201010,
|
||||
1002002010000000,
|
||||
1020201011202010,
|
||||
1020201011202010,
|
||||
1020201011200000,
|
||||
1020201011200020,
|
||||
1020201011202010,
|
||||
1020201011202010,
|
||||
70087008,
|
||||
1011111000001010,
|
||||
500000000000000000000000000008000000100000500000,
|
||||
000000000000000000000000000008000000100000500000,
|
||||
000000000000000008000000000000100000200000200000,
|
||||
1002002010201110,
|
||||
1022201022200000,
|
||||
1022201020020050,
|
||||
000000000000000000000008000000000000000000000000,
|
||||
300000000300000000600000000008000000100000100000,
|
||||
|
||||
#GOGOSTART
|
||||
1011021010110210,
|
||||
100000100100100000700000000000080000200000200000,
|
||||
1011101020222020,
|
||||
3000101110102020,
|
||||
1011021010110210,
|
||||
100000100100100000700000000000080000200000200000,
|
||||
33003300,
|
||||
|
||||
#GOGOEND
|
||||
700000000000000000000000000000000000000000000008,
|
||||
|
||||
|
||||
#END
|
||||
|
||||
|
||||
COURSE:Hard
|
||||
LEVEL:4
|
||||
BALLOON:10,4,4,8,8,8,15
|
||||
SCOREINIT:1150
|
||||
SCOREDIFF:370
|
||||
|
||||
|
||||
#START
|
||||
|
||||
|
||||
10202220,
|
||||
10202220,
|
||||
1000200022200000,
|
||||
1000200022200020,
|
||||
10202220,
|
||||
10202220,
|
||||
0220,
|
||||
7008,
|
||||
1020100100201000,
|
||||
1020100100201000,
|
||||
1020100100201010,
|
||||
1002002010201000,
|
||||
1020100100201000,
|
||||
1020100100201000,
|
||||
1020100100201010,
|
||||
1002002010000000,
|
||||
10102222,
|
||||
10102222,
|
||||
1000100022200000,
|
||||
1000100022200020,
|
||||
10102121,
|
||||
10101212,
|
||||
70087008,
|
||||
1010222000001010,
|
||||
70000817,
|
||||
00008017,
|
||||
00008111,
|
||||
1002002010101000,
|
||||
12212200,
|
||||
1020201020020050,
|
||||
000000000000000000000008000000000000000000000000,
|
||||
3003003000000000,
|
||||
#GOGOSTART
|
||||
12101210,
|
||||
1011101000002000,
|
||||
11102220,
|
||||
3112,
|
||||
12101210,
|
||||
1011101000002000,
|
||||
33003300,
|
||||
#GOGOEND
|
||||
9,
|
||||
8,
|
||||
,
|
||||
,
|
||||
#END
|
||||
|
||||
|
||||
COURSE:1
|
||||
LEVEL:2
|
||||
BALLOON:8,8,7,7,7,10
|
||||
SCOREINIT:1350
|
||||
SCOREDIFF:830
|
||||
|
||||
#START
|
||||
2022,
|
||||
2022,
|
||||
20002200,
|
||||
2220,
|
||||
2022,
|
||||
2022,
|
||||
0220,
|
||||
7008,
|
||||
1101,
|
||||
1101,
|
||||
1101,
|
||||
1011,
|
||||
1101,
|
||||
1101,
|
||||
1101,
|
||||
100000000000000000000000500000000008000000000000,
|
||||
1022,
|
||||
1022,
|
||||
10002200,
|
||||
1120,
|
||||
1022,
|
||||
1022,
|
||||
7008,
|
||||
1201,
|
||||
70000807,
|
||||
00008007,
|
||||
08,
|
||||
11,
|
||||
10001100,
|
||||
10101005,
|
||||
000000000000000000000008000000000000000000000000,
|
||||
30030000,
|
||||
#GOGOSTART
|
||||
1212,
|
||||
10110020,
|
||||
1122,
|
||||
3330,
|
||||
1212,
|
||||
10110020,
|
||||
33,
|
||||
#GOGOEND
|
||||
9,
|
||||
8,
|
||||
,
|
||||
,
|
||||
#END
|
||||
|
||||
COURSE:0
|
||||
LEVEL:1
|
||||
BALLOON:5,6,4,4,4,8
|
||||
SCOREINIT:1870
|
||||
SCOREDIFF:2285
|
||||
|
||||
#START
|
||||
2,
|
||||
2,
|
||||
2,
|
||||
22,
|
||||
2,
|
||||
2,
|
||||
22,
|
||||
7008,
|
||||
1,
|
||||
1,
|
||||
1,
|
||||
11,
|
||||
1,
|
||||
1,
|
||||
1,
|
||||
11,
|
||||
2,
|
||||
2,
|
||||
2,
|
||||
21,
|
||||
2,
|
||||
2,
|
||||
7008,
|
||||
2,
|
||||
70000807,
|
||||
00008007,
|
||||
08,
|
||||
1,
|
||||
11,
|
||||
10001005,
|
||||
000000000000000000000008000000000000000000000000,
|
||||
600000000000000000000008000000000000000000000000,
|
||||
#GOGOSTART
|
||||
11,
|
||||
1100,
|
||||
11,
|
||||
33,
|
||||
11,
|
||||
1100,
|
||||
33,
|
||||
#GOGOEND
|
||||
9,
|
||||
8,
|
||||
|
||||
#END
|
||||
Reference in New Issue
Block a user